<?xml version="1.0" standalone="no"?>
<!DOCTYPE svg PUBLIC "-//W3C//DTD SVG 1.1//EN" "http://www.w3.org/Graphics/SVG/1.1/DTD/svg11.dtd" >
<svg xmlns="http://www.w3.org/2000/svg" xmlns:xlink="http://www.w3.org/1999/xlink" version="1.1">
<metadata>
Created by FontForge 20161116 at Tue Jun 27 14:21:53 2017
 By Jimmy Wärting
Generated in 2013 by FontLab Studio. Copyright info pending.
</metadata>
<defs>
<font id="CircularStd-BookItalic" horiz-adv-x="560" >
  <font-face 
    font-family="CircularStd"
    font-weight="450"
    font-style="italic"
    font-stretch="normal"
    units-per-em="1000"
    panose-1="2 11 6 4 2 1 1 2 1 2"
    ascent="809"
    descent="-191"
    x-height="481"
    cap-height="709"
    bbox="-131 -233 1544 958"
    underline-thickness="80"
    underline-position="-195"
    slope="-12"
    stemh="88"
    stemv="81"
    unicode-range="U+000D-FEFF"
  />
<missing-glyph horiz-adv-x="555" 
d="M5 0v709h545v-709h-545zM84 79h387v551h-387v-551z" />
    <glyph glyph-name="f_f" unicode="ff" horiz-adv-x="618" 
d="M617 643c-40 0 -71 -18 -84 -77l-18 -85h109l-18 -83h-109l-84 -398h-97l84 398h-189l-84 -398h-97l84 398h-81l18 83h81l21 100c27 130 113 148 172 148c38 0 61 -12 64 -14l-18 -80c-5 2 -20 8 -40 8c-40 0 -71 -18 -84 -77l-18 -85h189l21 100c27 130 113 148 172 148
c38 0 61 -12 64 -14l-18 -80c-5 2 -20 8 -40 8z" />
    <glyph glyph-name="f_f_i" unicode="ffi" horiz-adv-x="870" 
d="M738 659c0 42 38 74 74 74s61 -27 61 -60c0 -41 -38 -74 -74 -74s-61 27 -61 60zM617 643c-40 0 -71 -18 -84 -77l-18 -85h300l-103 -481h-94l85 398h-206l-84 -398h-97l84 398h-189l-84 -398h-97l84 398h-81l18 83h81l21 100c27 130 113 148 172 148c38 0 61 -12 64 -14
l-18 -80c-5 2 -20 8 -40 8c-40 0 -71 -18 -84 -77l-18 -85h189l21 100c27 130 113 148 172 148c38 0 61 -12 64 -14l-18 -80c-5 2 -20 8 -40 8z" />
    <glyph glyph-name="f_f_l" unicode="ffl" horiz-adv-x="875" 
d="M617 643c-40 0 -71 -18 -84 -77l-18 -85h212l52 243h94l-154 -724h-94l85 398h-213l-84 -398h-97l84 398h-189l-84 -398h-97l84 398h-81l18 83h81l21 100c27 130 113 148 172 148c38 0 61 -12 64 -14l-18 -80c-5 2 -20 8 -40 8c-40 0 -71 -18 -84 -77l-18 -85h189l21 100
c27 130 113 148 172 148c38 0 61 -12 64 -14l-18 -80c-5 2 -20 8 -40 8z" />
    <glyph glyph-name="f_i" unicode="fi" horiz-adv-x="591" 
d="M211 398l-84 -398h-97l84 398h-81l18 83h81l21 100c27 130 113 148 172 148c38 0 61 -12 64 -14l-18 -80c-5 2 -20 8 -40 8c-40 0 -71 -18 -84 -77l-18 -85h307l-103 -481h-94l85 398h-213zM459 659c0 42 38 74 74 74s61 -27 61 -60c0 -41 -38 -74 -74 -74s-61 27 -61 60
z" />
    <glyph glyph-name="f_l" unicode="fl" horiz-adv-x="590" 
d="M331 643c-40 0 -71 -18 -84 -77l-18 -85h213l52 243h94l-154 -724h-94l85 398h-214l-84 -398h-97l84 398h-81l18 83h81l21 100c27 130 113 148 172 148c38 0 61 -12 64 -14l-18 -80c-5 2 -20 8 -40 8z" />
    <glyph glyph-name=".notdef" horiz-adv-x="555" 
d="M5 0v709h545v-709h-545zM84 79h387v551h-387v-551z" />
    <glyph glyph-name=".null" horiz-adv-x="0" 
 />
    <glyph glyph-name=".null" horiz-adv-x="0" 
 />
    <glyph glyph-name="uni000D" unicode="&#xd;" horiz-adv-x="261" 
 />
    <glyph glyph-name="space" unicode=" " horiz-adv-x="261" 
 />
    <glyph glyph-name="exclam" unicode="!" horiz-adv-x="304" 
d="M85 203l79 506h120l-132 -506h-67zM25 53c0 39 31 73 72 73c36 0 60 -25 60 -58c0 -41 -34 -73 -71 -73c-36 0 -61 25 -61 58z" />
    <glyph glyph-name="quotedbl" unicode="&#x22;" horiz-adv-x="400" 
d="M125 393h-35v198c0 36 24 68 66 68c34 0 56 -22 56 -53c0 -11 -3 -22 -7 -32zM298 393h-35v198c0 36 24 68 66 68c34 0 56 -22 56 -53c0 -11 -3 -22 -7 -32z" />
    <glyph glyph-name="numbersign" unicode="#" horiz-adv-x="718" 
d="M84 405v76h144l36 167h84l-36 -167h142l36 167h84l-36 -167h135v-76h-151l-34 -160h136v-76h-153l-36 -169h-84l36 169h-142l-36 -169h-84l36 169h-126v76h143l34 160h-128zM296 405l-34 -160h142l34 160h-142z" />
    <glyph glyph-name="dollar" unicode="$" horiz-adv-x="565" 
d="M156 -117l23 111c-116 27 -164 124 -164 209c0 2 0 4 1 13l89 15c-1 -9 -1 -13 -1 -17c0 -59 28 -118 92 -139l47 218l-23 12c-71 37 -116 86 -116 166c0 108 92 191 217 192l22 103h76l-24 -113c103 -28 140 -115 140 -174l-85 -17c0 27 -10 85 -73 109l-46 -221l15 -7
c82 -43 126 -96 126 -168c0 -102 -89 -190 -219 -190l-21 -102h-76zM195 482c0 -42 21 -72 64 -94l3 -2l42 196c-63 -4 -109 -46 -109 -100zM378 168c0 35 -23 65 -67 90l-40 -190c65 6 106 44 107 100z" />
    <glyph glyph-name="percent" unicode="%" horiz-adv-x="768" 
d="M208 422c44 0 85 36 85 91c0 40 -27 67 -70 67s-83 -38 -83 -89c0 -40 26 -69 68 -69zM200 344c-83 0 -143 62 -143 141c0 94 79 174 175 174c82 0 144 -63 144 -143c0 -98 -88 -172 -176 -172zM549 74c44 0 85 36 85 91c0 40 -27 67 -70 67s-83 -38 -83 -89
c0 -40 26 -69 68 -69zM541 -4c-83 0 -143 62 -143 141c0 94 79 174 175 174c82 0 144 -63 144 -143c0 -98 -88 -172 -176 -172zM732 648l-604 -648h-97l606 648h95z" />
    <glyph glyph-name="ampersand" unicode="&#x26;" horiz-adv-x="680" 
d="M589 0h-114l-62 88l-9 -8c-62 -54 -120 -87 -201 -87c-114 0 -190 79 -190 176c0 108 74 167 167 217l18 10l-14 19c-23 32 -50 75 -50 129c0 122 101 180 194 180c109 0 172 -70 172 -155c0 -93 -74 -141 -138 -177l-34 -19l107 -154l207 179l-29 -136l-129 -112z
M113 175c0 -61 47 -93 101 -93c50 0 102 34 145 71l5 4l-119 170l-45 -25c-61 -34 -87 -68 -87 -127zM281 440l37 20c68 36 85 70 85 109c0 44 -35 71 -80 71c-36 0 -92 -25 -92 -92c0 -28 13 -55 26 -74z" />
    <glyph glyph-name="quotesingle" unicode="'" horiz-adv-x="217" 
d="M125 393h-35v198c0 36 24 68 66 68c34 0 56 -22 56 -53c0 -11 -3 -22 -7 -32z" />
    <glyph glyph-name="parenleft" unicode="(" horiz-adv-x="285" 
d="M37 201c0 229 104 448 303 586l45 -61c-149 -109 -266 -282 -266 -520c0 -116 33 -219 89 -315l-67 -37c-59 92 -104 208 -104 347z" />
    <glyph glyph-name="parenright" unicode=")" horiz-adv-x="285" 
d="M248 432c0 -234 -108 -442 -303 -583l-45 60c150 110 266 280 266 521c0 115 -33 219 -88 315l66 37c61 -96 104 -216 104 -350z" />
    <glyph glyph-name="asterisk" unicode="*" horiz-adv-x="433" 
d="M325 709l-26 -134l130 42l9 -72l-132 -43l62 -103l-65 -46l-63 109l-101 -108l-56 46l103 106l-116 41l35 70l114 -43l21 135h85z" />
    <glyph glyph-name="plus" unicode="+" horiz-adv-x="567" 
d="M316 248v-197h-82v197h-187v79h187v195h82v-195h188v-79h-188z" />
    <glyph glyph-name="comma" unicode="," horiz-adv-x="282" 
d="M11 55c0 43 35 76 80 76c42 0 76 -29 76 -82c0 -104 -84 -203 -197 -209l11 54c55 10 104 55 115 104c-4 -2 -14 -4 -23 -4c-34 0 -62 23 -62 61z" />
    <glyph glyph-name="hyphen" unicode="-" horiz-adv-x="358" 
d="M291 246h-271l17 82h271z" />
    <glyph glyph-name="period" unicode="." horiz-adv-x="262" 
d="M70 -5c-39 0 -65 28 -65 61c0 42 35 78 78 78c39 0 64 -28 64 -62c0 -44 -36 -77 -77 -77z" />
    <glyph glyph-name="slash" unicode="/" horiz-adv-x="459" 
d="M539 724l-518 -739h-96l517 739h97z" />
    <glyph glyph-name="zero" unicode="0" horiz-adv-x="604" 
d="M127 239c0 -97 39 -165 134 -165c148 0 201 214 201 341c0 96 -35 159 -134 159c-149 0 -201 -209 -201 -335zM254 -15c-159 0 -224 122 -224 255c0 189 97 423 305 423c165 0 224 -121 224 -251c0 -202 -105 -427 -305 -427z" />
    <glyph glyph-name="one" unicode="1" horiz-adv-x="341" 
d="M174 0h-97l100 468h-142l13 63c80 6 147 50 177 117h86z" />
    <glyph glyph-name="two" unicode="2" horiz-adv-x="539" 
d="M-30 0c13 121 81 221 209 282l121 58c77 37 119 77 119 138c0 52 -32 101 -110 101c-84 0 -141 -59 -141 -158v-8l-95 8v7c0 127 89 235 240 235c140 0 205 -79 205 -175c0 -106 -65 -175 -166 -223l-144 -68c-38 -18 -86 -53 -106 -106h354l-19 -91h-467z" />
    <glyph glyph-name="three" unicode="3" horiz-adv-x="541" 
d="M215 312l-37 91l231 156h-316l18 89h437l-23 -113l-218 -146c82 -7 157 -71 157 -174c0 -119 -94 -230 -245 -230c-146 0 -223 100 -223 201c0 9 0 19 2 29l96 11c-2 -9 -2 -18 -2 -27c0 -65 41 -128 125 -128c83 0 146 55 146 137c0 79 -63 108 -117 108
c-11 0 -24 -2 -31 -4z" />
    <glyph glyph-name="four" unicode="4" horiz-adv-x="588" 
d="M-5 146l24 116l371 386h127l-90 -411h121l-19 -91h-121l-28 -146h-95l28 146h-318zM332 237l67 305l-292 -305h225z" />
    <glyph glyph-name="five" unicode="5" horiz-adv-x="535" 
d="M-5 191c0 2 0 7 1 10l95 18c-1 -6 -1 -11 -1 -16c0 -66 37 -132 127 -132c74 0 144 52 144 149c0 71 -46 117 -119 117c-46 0 -78 -14 -105 -36l-88 56l139 291h347l-19 -90h-277l-78 -162c29 17 60 24 100 24c116 0 200 -69 200 -189c0 -135 -102 -246 -246 -246
c-132 0 -220 85 -220 206z" />
    <glyph glyph-name="six" unicode="6" horiz-adv-x="559" 
d="M562 631l-36 -77c-35 16 -73 24 -115 24c-135 0 -230 -82 -264 -207c31 32 83 58 152 58c125 0 203 -77 203 -191c0 -159 -125 -253 -257 -253c-116 0 -220 84 -220 241c0 226 144 437 384 437c54 0 114 -8 153 -32zM275 345c-85 0 -148 -62 -148 -148
c0 -74 54 -126 126 -126c74 0 148 54 148 153c0 74 -48 121 -126 121z" />
    <glyph glyph-name="seven" unicode="7" horiz-adv-x="483" 
d="M538 648l-20 -94c-70 -48 -289 -207 -391 -554h-102c102 396 386 558 386 558h-365l19 90h473z" />
    <glyph glyph-name="eight" unicode="8" horiz-adv-x="556" 
d="M289 370c76 0 135 47 135 119c0 50 -38 94 -105 94c-87 0 -139 -50 -139 -120c0 -49 40 -93 109 -93zM104 167c0 -62 50 -101 126 -101c79 0 144 48 144 122c0 57 -40 103 -122 103c-84 0 -148 -48 -148 -124zM472 187c0 -124 -109 -202 -250 -202
c-147 0 -217 81 -217 175c0 82 58 153 161 175c-42 17 -82 72 -82 128c0 123 107 200 234 200c132 0 203 -73 203 -162c0 -81 -53 -149 -146 -173c62 -21 97 -78 97 -141z" />
    <glyph glyph-name="nine" unicode="9" 
d="M147 429c0 -73 49 -121 124 -121c85 0 143 61 143 146c0 75 -54 123 -122 123c-72 0 -145 -51 -145 -148zM-20 38l40 76c43 -30 93 -41 140 -41c137 0 230 92 243 222c-26 -39 -76 -71 -155 -71c-108 0 -201 74 -201 195c0 153 123 244 253 244c123 0 220 -75 220 -240
c0 -248 -123 -438 -360 -438c-64 0 -137 17 -180 53z" />
    <glyph glyph-name="colon" unicode=":" horiz-adv-x="290" 
d="M75 -5c-39 0 -65 28 -65 61c0 42 35 78 78 78c39 0 64 -28 64 -62c0 -44 -36 -77 -77 -77zM153 347c-39 0 -65 28 -65 61c0 42 35 78 78 78c39 0 64 -28 64 -62c0 -44 -36 -77 -77 -77z" />
    <glyph glyph-name="semicolon" unicode=";" horiz-adv-x="290" 
d="M3 55c0 41 33 73 76 73c41 0 73 -28 73 -79c0 -100 -80 -195 -189 -201l11 52c53 10 100 53 110 100c-4 -2 -13 -4 -22 -4c-33 0 -59 22 -59 59zM153 347c-39 0 -65 28 -65 61c0 42 35 78 78 78c39 0 64 -28 64 -62c0 -44 -36 -77 -77 -77z" />
    <glyph glyph-name="less" unicode="&#x3c;" horiz-adv-x="492" 
d="M25 244v85l412 206v-95l-310 -153l310 -153v-95z" />
    <glyph glyph-name="equal" unicode="=" horiz-adv-x="618" 
d="M65 346v77h463v-77h-463zM65 151v79h463v-79h-463z" />
    <glyph glyph-name="greater" unicode="&#x3e;" horiz-adv-x="492" 
d="M437 329v-85l-412 -205v95l312 153l-312 153v95z" />
    <glyph glyph-name="question" unicode="?" horiz-adv-x="502" 
d="M243 203h-86c6 79 45 147 120 191l51 30c51 30 78 68 78 117s-35 95 -107 95c-98 0 -144 -76 -144 -157l-95 13c5 136 101 232 249 232c129 0 198 -78 198 -168c0 -101 -63 -163 -141 -207l-54 -31c-43 -25 -66 -70 -69 -115zM118 53c0 39 31 73 72 73
c36 0 60 -25 60 -58c0 -41 -34 -73 -71 -73c-36 0 -61 25 -61 58z" />
    <glyph glyph-name="at" unicode="@" horiz-adv-x="816" 
d="M435 -47c-234 0 -400 153 -400 380c0 232 177 391 388 391c203 0 358 -140 358 -327c0 -149 -86 -260 -190 -260c-46 0 -86 20 -98 62c-30 -42 -77 -64 -120 -64c-90 0 -153 68 -153 171c0 134 92 233 200 233c41 0 91 -20 107 -62l9 49h79l-54 -251
c-2 -10 -3 -19 -3 -28c0 -23 10 -41 38 -41c56 0 108 90 108 190c0 146 -111 255 -280 255c-176 0 -307 -128 -307 -319c0 -175 118 -306 318 -306c73 0 145 22 205 70l41 -54c-58 -55 -160 -89 -246 -89zM505 370c0 59 -30 94 -84 94c-72 0 -119 -74 -119 -148
c0 -61 20 -108 85 -108c68 0 115 68 118 162z" />
    <glyph glyph-name="A" unicode="A" horiz-adv-x="654" 
d="M485 0l-32 198h-297l-115 -198h-111l423 709h108l123 -709h-99zM388 599l-179 -310h229z" />
    <glyph glyph-name="B" unicode="B" horiz-adv-x="603" 
d="M165 709h214c121 0 184 -70 184 -162c0 -85 -56 -164 -142 -188c59 -19 103 -73 103 -143c0 -122 -101 -216 -242 -216h-267zM197 399h115c92 0 152 57 152 133c0 56 -38 91 -109 91h-110zM131 86h137c89 0 155 56 155 134c0 55 -33 95 -114 95h-130z" />
    <glyph glyph-name="C" unicode="C" horiz-adv-x="719" 
d="M417 724c169 0 262 -101 287 -225l-93 -27c-19 90 -88 162 -204 162c-174 0 -272 -158 -272 -327c0 -144 79 -233 209 -233c100 0 181 54 228 160l86 -35c-58 -132 -170 -214 -323 -214c-175 0 -300 130 -300 316c0 277 194 423 382 423z" />
    <glyph glyph-name="D" unicode="D" horiz-adv-x="691" 
d="M131 87h145c132 0 281 113 281 333c0 133 -84 202 -217 202h-95zM276 0h-261l150 709h193c181 0 297 -111 297 -283c0 -280 -191 -426 -379 -426z" />
    <glyph glyph-name="E" unicode="E" horiz-adv-x="576" 
d="M441 0h-426l150 709h426l-19 -91h-328l-46 -218h297l-20 -92h-297l-46 -217h328z" />
    <glyph glyph-name="F" unicode="F" horiz-adv-x="561" 
d="M113 0h-98l150 709h426l-19 -91h-328l-49 -228h297l-19 -92h-297z" />
    <glyph glyph-name="G" unicode="G" horiz-adv-x="740" 
d="M408 634c-171 0 -274 -154 -274 -327c0 -144 81 -233 211 -233c102 0 206 68 235 185h-246l18 88h339l-73 -347h-76l8 80c-52 -60 -121 -95 -214 -95c-163 0 -301 119 -301 316c0 277 195 423 383 423c169 0 262 -101 287 -225l-93 -27c-19 90 -88 162 -204 162z" />
    <glyph glyph-name="H" unicode="H" horiz-adv-x="708" 
d="M543 0h-98l66 315h-332l-66 -315h-98l150 709h98l-64 -303h332l64 303h98z" />
    <glyph glyph-name="I" unicode="I" horiz-adv-x="280" 
d="M115 0h-100l150 709h100z" />
    <glyph glyph-name="J" unicode="J" horiz-adv-x="544" 
d="M440 709h99l-110 -513c-27 -125 -99 -210 -223 -210c-128 0 -196 81 -196 191c0 21 3 44 8 67l5 23l100 15l-11 -52c-4 -16 -5 -32 -5 -47c0 -64 33 -109 102 -109c67 0 105 47 122 124z" />
    <glyph glyph-name="K" unicode="K" horiz-adv-x="662" 
d="M465 0l-176 334l-130 -114l-46 -220h-98l150 709h98l-73 -344l392 344h135l-355 -312l214 -397h-111z" />
    <glyph glyph-name="L" unicode="L" horiz-adv-x="538" 
d="M438 0h-423l150 709h98l-131 -617h325z" />
    <glyph glyph-name="M" unicode="M" horiz-adv-x="926" 
d="M761 0h-97l115 543l-345 -543h-74l-133 540l-115 -540h-97l150 709h115l140 -570l361 570h130z" />
    <glyph glyph-name="N" unicode="N" horiz-adv-x="738" 
d="M573 0h-102l-236 574l-122 -574h-98l150 709h117l225 -554l118 554h98z" />
    <glyph glyph-name="O" unicode="O" horiz-adv-x="753" 
d="M35 294c0 283 193 430 377 430c185 0 306 -123 306 -310c0 -283 -193 -429 -376 -429c-185 0 -307 124 -307 309zM618 404c0 148 -90 230 -212 230c-174 0 -271 -161 -271 -330c0 -148 90 -229 212 -229c174 0 271 160 271 329z" />
    <glyph glyph-name="P" unicode="P" horiz-adv-x="588" 
d="M165 709h225c123 0 198 -77 198 -180c0 -144 -116 -235 -261 -235h-152l-62 -294h-98zM374 622h-129l-52 -241h134c93 0 162 52 162 142c0 59 -41 99 -115 99z" />
    <glyph glyph-name="Q" unicode="Q" horiz-adv-x="757" 
d="M35 294c0 283 193 430 377 430c185 0 306 -123 306 -310c0 -152 -56 -264 -135 -335l78 -105l-72 -49l-77 103c-54 -28 -112 -43 -170 -43c-185 0 -307 124 -307 309zM346 252l72 49l110 -148c58 62 90 155 90 251c0 148 -90 230 -212 230c-174 0 -271 -161 -271 -330
c0 -148 90 -229 212 -229c41 0 79 10 111 26z" />
    <glyph glyph-name="R" unicode="R" horiz-adv-x="615" 
d="M412 0l-111 294h-126l-62 -294h-98l150 709h230c123 0 195 -77 195 -180c0 -121 -79 -204 -190 -228l116 -301h-104zM193 381h139c93 0 159 52 159 142c0 59 -38 99 -112 99h-134z" />
    <glyph glyph-name="S" unicode="S" horiz-adv-x="581" 
d="M264 73c81 1 136 45 136 111c0 41 -22 79 -76 103l-94 42c-79 35 -129 94 -129 183c0 118 102 212 238 212c173 0 232 -122 232 -201l-93 -18c0 37 -18 132 -147 132c-73 0 -130 -49 -130 -112c0 -47 25 -79 66 -98l97 -45c94 -44 138 -109 138 -187
c0 -111 -96 -210 -238 -210c-185 0 -259 126 -259 236c0 2 0 8 1 15l99 17c-1 -9 -1 -16 -1 -20c0 -80 46 -160 160 -160z" />
    <glyph glyph-name="T" unicode="T" horiz-adv-x="566" 
d="M612 619h-220l-131 -619h-98l131 619h-229l19 90h547z" />
    <glyph glyph-name="U" unicode="U" horiz-adv-x="666" 
d="M562 709h99l-104 -493c-31 -147 -131 -231 -269 -231c-141 0 -232 76 -232 211c0 23 2 47 8 74l93 439h94l-92 -451c-4 -19 -6 -37 -6 -54c0 -78 44 -128 140 -128c87 0 147 55 167 149z" />
    <glyph glyph-name="V" unicode="V" horiz-adv-x="608" 
d="M173 709l80 -583l325 583h105l-406 -709h-97l-105 709h98z" />
    <glyph glyph-name="W" unicode="W" horiz-adv-x="952" 
d="M495 709h103l63 -561l252 561h99l-327 -709h-97l-63 575l-280 -575h-100l-55 709h95l39 -555z" />
    <glyph glyph-name="X" unicode="X" horiz-adv-x="627" 
d="M299 270l-232 -270h-122l311 356l-162 353h107l123 -275l235 275h123l-315 -361l161 -348h-108z" />
    <glyph glyph-name="Y" unicode="Y" horiz-adv-x="611" 
d="M257 305l-162 404h103l123 -311l228 311h117l-313 -410l-62 -299h-98z" />
    <glyph glyph-name="Z" unicode="Z" horiz-adv-x="614" 
d="M499 0h-529l20 96l510 523h-389l19 90h514l-20 -93l-512 -525h406z" />
    <glyph glyph-name="bracketleft" unicode="[" horiz-adv-x="288" 
d="M176 -148h-193l198 933h193l-16 -75h-116l-166 -784h116z" />
    <glyph glyph-name="backslash" unicode="\" horiz-adv-x="429" 
d="M278 -15l-213 739h86l213 -739h-86z" />
    <glyph glyph-name="bracketright" unicode="]" horiz-adv-x="288" 
d="M91 -148h-192l16 74h115l166 784h-116l16 75h193z" />
    <glyph glyph-name="asciicircum" unicode="^" horiz-adv-x="556" 
d="M249 710h83l194 -356h-99l-136 258l-137 -258h-99z" />
    <glyph glyph-name="underscore" unicode="_" horiz-adv-x="532" 
d="M-60 -79v79h512v-79h-512z" />
    <glyph glyph-name="grave" unicode="`" horiz-adv-x="208" 
d="M159 543l-94 146h112l56 -146h-74z" />
    <glyph glyph-name="a" unicode="a" horiz-adv-x="567" 
d="M266 414c-105 0 -161 -115 -161 -212c0 -76 37 -131 114 -131c92 0 159 95 159 219c0 69 -34 124 -112 124zM424 481h93l-75 -356c-11 -50 -11 -89 -11 -109c0 -3 0 -8 1 -16h-89c-1 5 -2 15 -2 28c0 7 0 18 2 33c-33 -40 -84 -71 -143 -71c-125 0 -190 93 -190 211
c0 156 102 294 251 294c81 0 129 -37 150 -75z" />
    <glyph glyph-name="b" unicode="b" horiz-adv-x="564" 
d="M83 0h-93l153 724h93l-60 -283c35 36 87 54 145 54c125 0 187 -94 187 -208c0 -169 -104 -300 -256 -300c-70 0 -129 36 -152 92zM286 412c-82 0 -157 -81 -157 -207c0 -76 43 -131 117 -134c86 0 166 73 166 206c0 85 -46 135 -126 135z" />
    <glyph glyph-name="c" unicode="c" horiz-adv-x="498" 
d="M468 344l-87 -30c-12 51 -48 98 -119 98c-82 0 -162 -68 -162 -204c0 -85 52 -139 131 -139c74 0 112 47 134 91l80 -35c-37 -72 -106 -140 -218 -140c-138 0 -222 96 -222 222c0 171 118 289 263 289c131 0 183 -84 200 -152z" />
    <glyph glyph-name="d" unicode="d" horiz-adv-x="567" 
d="M266 414c-105 0 -161 -115 -161 -212c0 -76 37 -131 114 -131c92 0 159 95 159 219c0 69 -34 124 -112 124zM343 61c-31 -40 -84 -71 -143 -71c-125 0 -190 93 -190 211c0 156 102 294 251 294c81 0 129 -37 150 -75l64 304h93l-126 -599c-11 -50 -11 -89 -11 -109
c0 -3 0 -8 1 -16h-89c-1 5 -2 15 -2 28c0 7 0 16 2 33z" />
    <glyph glyph-name="e" unicode="e" horiz-adv-x="528" 
d="M118 290h256c1 4 2 12 2 20c0 48 -27 103 -107 103c-81 0 -134 -60 -151 -123zM459 214h-354c-1 -7 -1 -11 -1 -17c0 -79 55 -129 122 -129c75 0 120 41 142 80l71 -46c-34 -63 -111 -117 -211 -117c-119 0 -218 75 -218 219c0 182 130 292 264 292
c130 0 199 -80 199 -194c0 -39 -9 -72 -14 -88z" />
    <glyph glyph-name="f" unicode="f" horiz-adv-x="332" 
d="M331 643c-40 0 -71 -18 -84 -77l-18 -85h109l-18 -83h-109l-84 -398h-97l84 398h-81l18 83h81l21 100c27 130 113 148 172 148c38 0 61 -12 64 -14l-18 -80c-5 2 -20 8 -40 8z" />
    <glyph glyph-name="g" unicode="g" horiz-adv-x="565" 
d="M378 293c0 54 -34 116 -118 116c-86 0 -153 -66 -153 -178c0 -71 38 -129 119 -129c91 0 152 73 152 191zM-47 -29l89 21v-7c0 -59 37 -108 116 -108c93 0 147 60 169 166l8 39c-21 -32 -67 -59 -128 -59c-124 0 -195 89 -195 202c0 149 101 266 245 266
c67 0 122 -27 149 -74l13 64h96l-90 -435c-26 -123 -92 -251 -271 -251c-133 0 -201 87 -201 176z" />
    <glyph glyph-name="h" unicode="h" horiz-adv-x="555" 
d="M409 0h-94l62 291c3 13 4 25 4 37c0 53 -30 84 -88 84c-76 0 -120 -67 -134 -132l-60 -280h-94l154 724h94l-60 -283c35 39 82 54 138 54c89 0 148 -56 148 -144c0 -14 -2 -30 -5 -46z" />
    <glyph glyph-name="i" unicode="i" horiz-adv-x="257" 
d="M125 659c0 42 38 74 74 74s61 -27 61 -60c0 -41 -38 -74 -74 -74s-61 27 -61 60zM99 0h-94l103 481h94z" />
    <glyph glyph-name="j" unicode="j" horiz-adv-x="256" 
d="M-8 -57l116 538h93l-119 -560c-17 -80 -72 -126 -145 -126c-36 0 -61 10 -68 14l16 75c3 -1 19 -6 37 -6c42 0 60 20 70 65zM125 659c0 42 38 74 74 74s61 -27 61 -60c0 -41 -38 -74 -74 -74s-61 27 -61 60z" />
    <glyph glyph-name="k" unicode="k" horiz-adv-x="527" 
d="M336 0l-109 228l-98 -80l-31 -148h-93l154 724h93l-94 -440l239 197h140l-238 -194l142 -287h-105z" />
    <glyph glyph-name="l" unicode="l" horiz-adv-x="255" 
d="M99 0h-94l154 724h94z" />
    <glyph glyph-name="m" unicode="m" horiz-adv-x="828" 
d="M390 0h-94l64 302c2 11 4 22 4 32c0 45 -25 79 -83 79c-67 0 -106 -51 -121 -123l-62 -290h-93l84 396c9 40 12 79 12 85h92c0 -2 -1 -26 -5 -50c35 42 77 64 139 64c58 0 101 -31 120 -77c50 63 108 77 165 77c75 0 140 -48 140 -138c0 -14 -2 -29 -5 -45l-67 -312h-93
l64 302c2 11 4 23 4 33c0 43 -25 78 -83 78c-66 0 -105 -53 -120 -122z" />
    <glyph glyph-name="n" unicode="n" horiz-adv-x="555" 
d="M409 0h-94l62 291c2 10 4 22 4 37c0 53 -30 84 -88 84c-76 0 -120 -67 -134 -132l-60 -280h-94l84 396c10 45 12 83 12 85h92c0 -4 -2 -31 -6 -53c37 50 91 67 149 67c84 0 143 -56 143 -144c0 -14 -2 -30 -5 -46z" />
    <glyph glyph-name="o" unicode="o" horiz-adv-x="541" 
d="M267 412c-82 0 -161 -72 -161 -203c0 -85 48 -140 122 -140c83 0 162 73 162 204c0 83 -46 139 -123 139zM486 275c0 -162 -112 -290 -262 -290c-136 0 -214 101 -214 222c0 165 113 289 263 289c139 0 213 -100 213 -221z" />
    <glyph glyph-name="p" unicode="p" horiz-adv-x="565" 
d="M291 409c-82 0 -160 -73 -160 -204c0 -85 46 -134 120 -134c81 0 162 75 162 206c0 85 -44 132 -122 132zM173 426c36 45 94 68 153 68c125 0 183 -92 183 -206c0 -170 -100 -301 -252 -301c-66 0 -130 33 -158 87l-56 -264h-93l125 586c9 43 12 77 12 85h92
c0 -6 -1 -31 -6 -55z" />
    <glyph glyph-name="q" unicode="q" horiz-adv-x="565" 
d="M515 481l-142 -671h-93l50 236c-33 -34 -78 -56 -130 -56c-125 0 -195 96 -195 211c0 156 103 293 252 293c79 0 130 -35 153 -72l12 59h93zM262 412c-105 0 -162 -111 -162 -210c0 -74 40 -131 121 -131c92 0 157 94 157 214c0 73 -35 127 -116 127z" />
    <glyph glyph-name="r" unicode="r" horiz-adv-x="364" 
d="M347 384c-12 2 -23 3 -34 3c-77 0 -142 -47 -166 -159l-49 -228h-93l84 396c9 44 12 79 12 85h92c0 -21 -4 -58 -9 -75c39 64 105 83 158 83c9 0 20 -1 27 -2z" />
    <glyph glyph-name="s" unicode="s" horiz-adv-x="441" 
d="M-10 150l83 19c1 -57 40 -104 105 -104c53 0 77 32 77 64c0 24 -15 43 -45 57l-70 32c-55 25 -86 67 -86 122c0 81 66 156 176 156c126 0 166 -88 171 -139l-84 -23c-6 37 -27 83 -96 83c-48 0 -76 -30 -76 -63c0 -27 14 -43 38 -54l66 -30c64 -29 100 -77 100 -134
c0 -62 -48 -151 -176 -151c-132 0 -183 96 -183 165z" />
    <glyph glyph-name="t" unicode="t" horiz-adv-x="337" 
d="M59 101c0 12 1 24 4 37l55 258h-88l18 85h14c57 0 89 30 99 78l16 74h86l-33 -152h97l-18 -85h-97l-53 -253c-2 -9 -3 -16 -3 -23c0 -30 18 -43 54 -43c11 0 24 1 32 2l-16 -77c-5 -2 -22 -7 -51 -7c-70 0 -116 39 -116 106z" />
    <glyph glyph-name="u" unicode="u" horiz-adv-x="544" 
d="M318 56c-32 -45 -86 -66 -131 -66c-99 0 -155 62 -155 155c0 17 2 36 6 55l60 281h94l-59 -279c-3 -16 -5 -31 -5 -46c0 -49 22 -86 85 -86c72 0 115 62 129 130l59 281h93l-75 -356c-11 -50 -11 -89 -11 -109c0 -3 0 -8 1 -16h-90c-1 5 -2 15 -2 28c0 5 0 15 1 28z" />
    <glyph glyph-name="v" unicode="v" horiz-adv-x="482" 
d="M497 481l-285 -481h-91l-86 481h97l53 -368l206 368h106z" />
    <glyph glyph-name="w" unicode="w" horiz-adv-x="768" 
d="M349 481h99l46 -359l181 359h103l-255 -481h-97l-48 364l-190 -364h-99l-49 481h90l31 -358z" />
    <glyph glyph-name="x" unicode="x" horiz-adv-x="495" 
d="M215 174l-159 -174h-121l235 246l-126 235h103c28 -56 57 -111 86 -167l152 167h120l-227 -238c44 -81 86 -162 131 -243h-103z" />
    <glyph glyph-name="y" unicode="y" horiz-adv-x="504" 
d="M78 -190h-108l181 273l-118 398h102l85 -302l188 302h111z" />
    <glyph glyph-name="z" unicode="z" horiz-adv-x="473" 
d="M359 0h-389l18 84l327 312h-252l18 85h372l-18 -85l-327 -311h269z" />
    <glyph glyph-name="braceleft" unicode="{" horiz-adv-x="353" 
d="M28 274l18 87c58 0 116 26 131 100l29 138c28 136 86 186 210 186h23l-16 -75h-14c-81 0 -110 -35 -124 -105l-35 -165c-14 -67 -59 -113 -129 -122c45 -11 78 -46 78 -100c0 -10 -1 -20 -3 -31l-31 -146c-4 -16 -5 -31 -5 -43c0 -48 25 -72 85 -72h13l-16 -74h-14
c-101 0 -148 44 -148 125c0 18 2 38 7 60l30 138c2 10 3 19 3 28c0 56 -47 71 -92 71z" />
    <glyph glyph-name="bar" unicode="|" horiz-adv-x="262" 
d="M65 -148h-82l198 933h82z" />
    <glyph glyph-name="braceright" unicode="}" horiz-adv-x="354" 
d="M310 360l-18 -87c-52 0 -114 -18 -131 -98l-30 -138c-27 -125 -95 -185 -218 -185h-14l16 74h12c76 0 114 49 128 115l35 164c13 62 62 102 129 116c-51 10 -82 46 -82 93c0 8 1 17 3 26l35 165c4 18 6 33 6 46c0 41 -21 59 -81 59h-19l16 75h23c90 0 142 -35 142 -116
c0 -17 -2 -36 -7 -57l-34 -151c-2 -10 -4 -20 -4 -28c0 -53 43 -73 93 -73z" />
    <glyph glyph-name="asciitilde" unicode="~" horiz-adv-x="640" 
d="M498 351l57 -46c-37 -61 -90 -93 -150 -93c-31 0 -64 9 -97 27l-46 25c-19 10 -37 15 -54 15c-37 0 -70 -22 -96 -57l-57 46c37 61 91 95 152 95c30 0 63 -8 95 -26l46 -25c19 -11 39 -16 57 -16c37 0 71 20 93 55z" />
    <glyph glyph-name="uni00A0" unicode="&#xa0;" horiz-adv-x="261" 
 />
    <glyph glyph-name="exclamdown" unicode="&#xa1;" horiz-adv-x="254" 
d="M154 288l-79 -506h-120l132 506h67zM214 438c0 -39 -31 -73 -72 -73c-36 0 -60 25 -60 58c0 41 34 73 71 73c36 0 61 -25 61 -58z" />
    <glyph glyph-name="cent" unicode="&#xa2;" horiz-adv-x="554" 
d="M170 0l19 92c-90 27 -144 106 -144 201c0 157 109 268 245 274l17 81h76l-19 -88c84 -21 121 -85 135 -137l-86 -29c-8 35 -28 67 -66 82l-66 -311c63 6 96 44 117 83l78 -33c-36 -69 -104 -133 -213 -133l-17 -82h-76zM138 294c0 -58 26 -99 69 -118l65 307
c-72 -12 -134 -74 -134 -189z" />
    <glyph glyph-name="sterling" unicode="&#xa3;" horiz-adv-x="597" 
d="M64 273l18 86h74c-6 32 -11 59 -11 88c0 120 84 216 211 216c111 0 180 -60 180 -159c0 -13 -2 -26 -4 -33l-93 -14c2 11 3 21 3 32c0 47 -30 88 -90 88c-65 0 -111 -43 -111 -124c0 -31 7 -62 13 -94h193l-18 -86h-167c-4 -81 -53 -151 -134 -186h210
c68 0 109 50 119 110l88 -18c-20 -113 -99 -179 -203 -179h-342l20 104c98 28 142 97 146 169h-102z" />
    <glyph glyph-name="currency" unicode="&#xa4;" horiz-adv-x="579" 
d="M73 239c0 45 14 86 37 120l-75 78l60 59l75 -78c34 22 74 35 116 35c40 0 78 -11 111 -31l72 74l60 -59l-70 -73c25 -35 41 -78 41 -125c0 -46 -14 -88 -39 -123l68 -71l-59 -59l-70 72c-33 -21 -73 -33 -114 -33c-44 0 -85 14 -119 37l-73 -76l-59 59l73 76
c-22 34 -35 74 -35 118zM156 239c0 -78 58 -132 130 -132s128 54 128 132c0 77 -56 131 -128 131s-130 -54 -130 -131z" />
    <glyph glyph-name="yen" unicode="&#xa5;" horiz-adv-x="583" 
d="M73 306l15 71h122l-106 271h110l92 -262l194 262h113l-213 -271h122l-15 -71h-169l-17 -80h169l-16 -72h-168l-32 -154h-97l32 154h-169l16 72h168l17 80h-168z" />
    <glyph glyph-name="brokenbar" unicode="&#xa6;" horiz-adv-x="262" 
d="M179 386h-82l84 399h82zM65 -148h-82l85 399h82z" />
    <glyph glyph-name="section" unicode="&#xa7;" horiz-adv-x="567" 
d="M4 -8l92 8c-3 -14 -5 -27 -5 -39c0 -57 32 -98 102 -98c56 0 111 36 111 104c0 30 -15 56 -41 75l-91 65c-56 40 -105 85 -105 154c0 83 70 130 115 145c-41 33 -62 79 -62 127c0 118 107 191 216 191c125 0 186 -74 186 -162c0 -14 -1 -28 -4 -43l-93 -9c3 14 5 28 5 40
c0 56 -33 96 -100 96c-59 0 -114 -40 -114 -103c0 -29 15 -55 43 -75l90 -65c55 -40 106 -81 106 -150c0 -82 -67 -136 -114 -150c39 -33 61 -81 61 -126c0 -121 -107 -192 -217 -192c-122 0 -185 73 -185 162c0 14 1 29 4 45zM316 307l-87 64c-30 -8 -69 -45 -69 -93
c0 -28 13 -52 45 -75l87 -64c29 7 70 45 70 92c0 29 -14 52 -46 76z" />
    <glyph glyph-name="dieresis" unicode="&#xa8;" horiz-adv-x="352" 
d="M65 614c0 35 29 65 64 65c32 0 53 -25 53 -53c0 -37 -33 -63 -66 -63c-29 0 -51 23 -51 51zM260 614c0 35 29 65 64 65c32 0 53 -25 53 -53c0 -37 -33 -63 -66 -63c-29 0 -51 23 -51 51z" />
    <glyph glyph-name="copyright" unicode="&#xa9;" horiz-adv-x="826" 
d="M40 355c0 203 162 369 364 369c203 0 367 -166 367 -369s-164 -370 -367 -370c-202 0 -364 167 -364 370zM118 355c0 -168 126 -297 286 -297s286 129 286 297s-126 296 -286 296s-286 -128 -286 -296zM593 441l-71 -25c-10 42 -40 81 -98 81c-67 0 -133 -56 -133 -167
c0 -70 43 -114 108 -114c60 0 92 38 110 74l65 -29c-30 -59 -87 -114 -179 -114c-113 0 -182 78 -182 182c0 140 97 237 216 237c107 0 150 -69 164 -125z" />
    <glyph glyph-name="ordfeminine" unicode="&#xaa;" horiz-adv-x="463" 
d="M242 592c-69 0 -106 -74 -106 -139c0 -51 26 -86 76 -86c59 0 104 60 104 143c0 47 -24 82 -74 82zM349 648h73l-53 -256c-4 -18 -7 -41 -7 -61v-22h-70c-1 7 -1 16 -1 21c0 3 0 11 1 22c-21 -27 -54 -50 -97 -50c-87 0 -134 67 -134 150c0 112 73 206 176 206
c59 0 90 -28 104 -52z" />
    <glyph glyph-name="guillemotleft" unicode="&#xab;" horiz-adv-x="477" 
d="M206 99h-93l-98 194l171 188h103l-176 -197zM399 99h-93l-98 194l171 188h103l-176 -197z" />
    <glyph glyph-name="logicalnot" unicode="&#xac;" horiz-adv-x="618" 
d="M523 149h-84v195h-379v82h463v-277z" />
    <glyph glyph-name="uni00AD" unicode="&#xad;" horiz-adv-x="358" 
d="M291 246h-271l17 82h271z" />
    <glyph glyph-name="registered" unicode="&#xae;" horiz-adv-x="826" 
d="M40 355c0 203 162 369 364 369c203 0 367 -166 367 -369s-164 -370 -367 -370c-202 0 -364 167 -364 370zM118 355c0 -168 126 -297 286 -297s286 129 286 297s-126 296 -286 296s-286 -128 -286 -296zM368 367h53c53 0 89 25 89 76c0 33 -21 51 -63 51h-50zM457 157
l-59 149h-42l-31 -149h-73l85 401h132c70 0 115 -54 115 -112c0 -71 -49 -122 -118 -134l65 -155h-74z" />
    <glyph glyph-name="macron" unicode="&#xaf;" horiz-adv-x="330" 
d="M338 577h-273l17 81h273z" />
    <glyph glyph-name="degree" unicode="&#xb0;" horiz-adv-x="399" 
d="M206 426c44 0 85 36 85 91c0 40 -27 67 -70 67s-83 -38 -83 -89c0 -40 26 -69 68 -69zM198 348c-83 0 -143 62 -143 141c0 94 79 174 175 174c82 0 144 -63 144 -143c0 -98 -88 -172 -176 -172z" />
    <glyph glyph-name="plusminus" unicode="&#xb1;" horiz-adv-x="592" 
d="M324 309v-134h-82v134h-177v77h177v136h82v-136h178v-77h-178zM65 51v79h437v-79h-437z" />
    <glyph glyph-name="twosuperior" unicode="&#xb2;" horiz-adv-x="381" 
d="M170 510l63 28c39 17 57 37 57 65c0 23 -17 48 -51 48c-39 0 -66 -24 -66 -77h-75c0 91 60 141 143 141c84 0 127 -51 127 -108c0 -58 -38 -100 -96 -125l-76 -33c-25 -11 -36 -26 -42 -40h184l-14 -65h-274c8 78 46 133 120 166z" />
    <glyph glyph-name="threesuperior" unicode="&#xb3;" horiz-adv-x="425" 
d="M198 515l-26 60l114 69h-160l14 65h260l-14 -74l-114 -67c48 -9 85 -50 85 -99c0 -68 -54 -132 -147 -132c-73 0 -135 43 -135 115c0 6 1 14 2 19l69 5c-1 -4 -1 -7 -1 -11c0 -33 26 -62 64 -62c40 0 72 22 72 64c0 33 -28 52 -59 52c-8 0 -19 -2 -24 -4z" />
    <glyph glyph-name="acute" unicode="&#xb4;" horiz-adv-x="279" 
d="M304 689l-155 -146h-84l115 146h124z" />
    <glyph glyph-name="mu" unicode="&#xb5;" horiz-adv-x="577" 
d="M65 -190v671h95v-289c0 -66 30 -124 109 -124c76 0 114 50 114 123v290h94v-392c0 -47 4 -81 5 -89h-90c-2 11 -4 38 -4 58c-26 -50 -86 -73 -142 -73c-33 0 -62 7 -87 20v-195h-94z" />
    <glyph glyph-name="paragraph" unicode="&#xb6;" horiz-adv-x="626" 
d="M381 628l-176 -829h-83l111 522h-9c-94 0 -164 68 -164 159c0 148 137 229 271 229h340l-17 -81h-97l-176 -829h-83l176 829h-93z" />
    <glyph glyph-name="periodcentered" unicode="&#xb7;" horiz-adv-x="272" 
d="M55 276c0 42 35 78 78 78c39 0 64 -28 64 -62c0 -44 -36 -77 -77 -77c-39 0 -65 28 -65 61z" />
    <glyph glyph-name="cedilla" unicode="&#xb8;" horiz-adv-x="294" 
d="M70 14h84l-79 -66c45 -6 68 -37 68 -72c0 -52 -47 -92 -115 -92c-70 0 -113 41 -124 71l52 32c6 -14 25 -48 71 -48c23 0 46 11 46 35c0 20 -17 33 -43 33c-3 0 -9 0 -14 -1l-22 42z" />
    <glyph glyph-name="onesuperior" unicode="&#xb9;" horiz-adv-x="290" 
d="M176 344h-77l56 250h-80l10 51c49 2 87 28 102 64h68z" />
    <glyph glyph-name="ordmasculine" unicode="&#xba;" horiz-adv-x="455" 
d="M243 591c-56 0 -106 -50 -106 -133c0 -57 32 -92 80 -92c54 0 107 47 107 134c0 55 -30 91 -81 91zM400 502c0 -113 -79 -203 -186 -203c-96 0 -153 70 -153 156c0 118 82 204 187 204c98 0 152 -71 152 -157z" />
    <glyph glyph-name="guillemotright" unicode="&#xbb;" horiz-adv-x="492" 
d="M48 481h93l98 -194l-171 -188h-103l176 197zM256 481h93l98 -194l-171 -188h-103l176 197z" />
    <glyph glyph-name="onequarter" unicode="&#xbc;" horiz-adv-x="796" 
d="M369 76l16 85l206 204h88l-48 -224h65l-14 -65h-64c0 -1 -1 -4 -16 -76h-76l16 76h-173zM555 141l31 137l-138 -137h107zM190 283h-77l56 250h-80l10 51c49 2 87 28 102 64h68zM716 648l-604 -648h-97l606 648h95z" />
    <glyph glyph-name="onehalf" unicode="&#xbd;" horiz-adv-x="815" 
d="M716 648l-604 -648h-97l606 648h95zM190 283h-77l56 250h-80l10 51c49 2 87 28 102 64h68zM547 166l63 28c39 17 57 37 57 65c0 23 -17 48 -51 48c-39 0 -66 -24 -66 -77h-75c0 91 60 141 143 141c84 0 127 -51 127 -108c0 -58 -38 -100 -96 -125l-76 -33
c-25 -11 -36 -26 -42 -40h184l-14 -65h-274c8 78 46 133 120 166z" />
    <glyph glyph-name="threequarters" unicode="&#xbe;" horiz-adv-x="884" 
d="M457 76l16 85l206 204h88l-48 -224h65l-14 -65h-64c0 -1 -1 -4 -16 -76h-76l16 76h-173zM643 141l31 137l-138 -137h107zM804 648l-604 -648h-97l606 648h95zM178 454l-26 60l114 69h-160l14 65h260l-14 -74l-114 -67c48 -9 85 -50 85 -99c0 -68 -54 -132 -147 -132
c-73 0 -135 43 -135 115c0 6 1 14 2 19l69 5c-1 -4 -1 -7 -1 -11c0 -33 26 -62 64 -62c40 0 72 22 72 64c0 33 -28 52 -59 52c-8 0 -19 -2 -24 -4z" />
    <glyph glyph-name="questiondown" unicode="&#xbf;" horiz-adv-x="457" 
d="M201 288h86c-6 -79 -40 -144 -120 -191l-51 -30c-50 -29 -75 -68 -75 -117s32 -95 107 -95c98 0 144 76 144 157l95 -13c-5 -136 -101 -232 -249 -232c-129 0 -198 80 -198 168c0 101 60 163 138 207l54 31c46 26 66 70 69 115zM326 438c0 -39 -31 -73 -72 -73
c-36 0 -60 25 -60 58c0 41 34 73 71 73c36 0 61 -25 61 -58z" />
    <glyph glyph-name="Agrave" unicode="&#xc0;" horiz-adv-x="654" 
d="M485 0l-32 198h-297l-115 -198h-111l423 709h108l123 -709h-99zM388 599l-179 -310h229zM373 759l-107 119h118l75 -119h-86z" />
    <glyph glyph-name="Aacute" unicode="&#xc1;" horiz-adv-x="654" 
d="M485 0l-32 198h-297l-115 -198h-111l423 709h108l123 -709h-99zM388 599l-179 -310h229zM616 878l-153 -119h-97l119 119h131z" />
    <glyph glyph-name="Acircumflex" unicode="&#xc2;" horiz-adv-x="654" 
d="M485 0l-32 198h-297l-115 -198h-111l423 709h108l123 -709h-99zM388 599l-179 -310h229zM323 759h-87l135 119h120l90 -119h-83l-74 64z" />
    <glyph glyph-name="Atilde" unicode="&#xc3;" horiz-adv-x="654" 
d="M485 0l-32 198h-297l-115 -198h-111l423 709h108l123 -709h-99zM388 599l-179 -310h229zM586 881c-16 -95 -58 -126 -113 -126c-28 0 -53 12 -70 24l-12 8c-12 8 -23 14 -38 14c-19 0 -33 -12 -39 -44h-70c10 91 59 126 114 126c28 0 53 -12 70 -24l12 -8
c12 -8 23 -14 38 -14c19 0 33 12 39 44h69z" />
    <glyph glyph-name="Adieresis" unicode="&#xc4;" horiz-adv-x="654" 
d="M215 813c0 38 29 65 66 65c31 0 52 -23 52 -52c0 -39 -31 -66 -65 -66c-30 0 -53 22 -53 53zM503 813c0 38 29 65 66 65c31 0 52 -23 52 -52c0 -39 -31 -66 -65 -66c-30 0 -53 22 -53 53zM485 0l-32 198h-297l-115 -198h-111l423 709h108l123 -709h-99zM388 599
l-179 -310h229z" />
    <glyph glyph-name="Aring" unicode="&#xc5;" horiz-adv-x="654" 
d="M410 811c-27 0 -56 -22 -56 -55c0 -29 19 -47 48 -47c30 0 57 22 57 55c0 27 -20 47 -49 47zM388 599l-179 -310h229zM485 0l-32 198h-297l-115 -198h-111l396 663c-26 20 -42 50 -42 84c0 79 67 133 134 133c64 0 113 -50 113 -110c0 -43 -25 -85 -62 -109l115 -661h-99
z" />
    <glyph glyph-name="AE" unicode="&#xc6;" horiz-adv-x="1019" 
d="M575 91h328l-19 -91h-426l40 191h-281l-163 -191h-124l615 709h489l-19 -91h-328l-46 -218h297l-20 -92h-297zM292 279h225l74 350z" />
    <glyph glyph-name="Ccedilla" unicode="&#xc7;" horiz-adv-x="719" 
d="M231 -52l48 42c-145 24 -244 145 -244 311c0 277 194 423 382 423c169 0 262 -101 287 -225l-93 -27c-19 90 -88 162 -204 162c-174 0 -272 -158 -272 -327c0 -144 79 -233 209 -233c100 0 181 54 228 160l86 -35c-55 -126 -160 -206 -301 -213l-45 -38
c45 -6 68 -37 68 -72c0 -52 -47 -92 -115 -92c-70 0 -112 44 -124 71l52 32c6 -14 25 -48 71 -48c23 0 46 11 46 35c0 20 -19 33 -43 33c-3 0 -9 0 -14 -1z" />
    <glyph glyph-name="Egrave" unicode="&#xc8;" horiz-adv-x="576" 
d="M441 0h-426l150 709h426l-19 -91h-328l-46 -218h297l-20 -92h-297l-46 -217h328zM367 759l-107 119h118l75 -119h-86z" />
    <glyph glyph-name="Eacute" unicode="&#xc9;" horiz-adv-x="576" 
d="M441 0h-426l150 709h426l-19 -91h-328l-46 -218h297l-20 -92h-297l-46 -217h328zM562 878l-153 -119h-97l119 119h131z" />
    <glyph glyph-name="Ecircumflex" unicode="&#xca;" horiz-adv-x="576" 
d="M441 0h-426l150 709h426l-19 -91h-328l-46 -218h297l-20 -92h-297l-46 -217h328zM302 759h-87l135 119h120l90 -119h-83l-74 64z" />
    <glyph glyph-name="Edieresis" unicode="&#xcb;" horiz-adv-x="576" 
d="M221 813c0 38 29 65 66 65c31 0 52 -23 52 -52c0 -39 -31 -66 -65 -66c-30 0 -53 22 -53 53zM451 813c0 38 29 65 66 65c31 0 52 -23 52 -52c0 -39 -31 -66 -65 -66c-30 0 -53 22 -53 53zM441 0h-426l150 709h426l-19 -91h-328l-46 -218h297l-20 -92h-297l-46 -217h328z
" />
    <glyph glyph-name="Igrave" unicode="&#xcc;" horiz-adv-x="280" 
d="M196 759l-107 119h118l75 -119h-86zM115 0h-100l150 709h100z" />
    <glyph glyph-name="Iacute" unicode="&#xcd;" horiz-adv-x="280" 
d="M428 878l-153 -119h-97l119 119h131zM115 0h-100l150 709h100z" />
    <glyph glyph-name="Icircumflex" unicode="&#xce;" horiz-adv-x="280" 
d="M138 759h-87l135 119h120l90 -119h-83l-74 64zM115 0h-100l150 709h100z" />
    <glyph glyph-name="Idieresis" unicode="&#xcf;" horiz-adv-x="280" 
d="M102 813c0 34 26 59 60 59c27 0 46 -21 46 -46c0 -35 -27 -60 -59 -60c-26 0 -47 20 -47 47zM257 813c0 34 26 59 60 59c27 0 46 -21 46 -46c0 -35 -27 -60 -59 -60c-26 0 -47 20 -47 47zM115 0h-100l150 709h100z" />
    <glyph glyph-name="Eth" unicode="&#xd0;" horiz-adv-x="690" 
d="M15 320l17 82h68l65 307h193c181 0 297 -111 297 -283c0 -280 -191 -426 -379 -426h-261l67 320h-67zM131 87h145c132 0 281 113 281 333c0 133 -80 202 -217 202h-95l-47 -220h150l-17 -82h-151z" />
    <glyph glyph-name="Ntilde" unicode="&#xd1;" horiz-adv-x="738" 
d="M639 881c-16 -95 -58 -126 -113 -126c-28 0 -53 12 -70 24l-12 8c-12 8 -23 14 -38 14c-19 0 -33 -12 -39 -44h-70c10 91 59 126 114 126c28 0 53 -12 70 -24l12 -8c12 -8 23 -14 38 -14c19 0 33 12 39 44h69zM573 0h-102l-236 574l-122 -574h-98l150 709h117l225 -554
l118 554h98z" />
    <glyph glyph-name="Ograve" unicode="&#xd2;" horiz-adv-x="753" 
d="M35 294c0 283 193 430 377 430c185 0 306 -123 306 -310c0 -283 -193 -429 -376 -429c-185 0 -307 124 -307 309zM618 404c0 148 -90 230 -212 230c-174 0 -271 -161 -271 -330c0 -148 90 -229 212 -229c174 0 271 160 271 329zM411 759l-107 119h118l75 -119h-86z" />
    <glyph glyph-name="Oacute" unicode="&#xd3;" horiz-adv-x="753" 
d="M35 294c0 283 193 430 377 430c185 0 306 -123 306 -310c0 -283 -193 -429 -376 -429c-185 0 -307 124 -307 309zM618 404c0 148 -90 230 -212 230c-174 0 -271 -161 -271 -330c0 -148 90 -229 212 -229c174 0 271 160 271 329zM639 878l-153 -119h-97l119 119h131z" />
    <glyph glyph-name="Ocircumflex" unicode="&#xd4;" horiz-adv-x="753" 
d="M35 294c0 283 193 430 377 430c185 0 306 -123 306 -310c0 -283 -193 -429 -376 -429c-185 0 -307 124 -307 309zM618 404c0 148 -90 230 -212 230c-174 0 -271 -161 -271 -330c0 -148 90 -229 212 -229c174 0 271 160 271 329zM349 759h-87l135 119h120l90 -119h-83
l-74 64z" />
    <glyph glyph-name="Otilde" unicode="&#xd5;" horiz-adv-x="753" 
d="M626 881c-16 -95 -58 -126 -113 -126c-28 0 -53 12 -70 24l-12 8c-12 8 -23 14 -38 14c-19 0 -33 -12 -39 -44h-70c10 91 59 126 114 126c28 0 53 -12 70 -24l12 -8c12 -8 23 -14 38 -14c19 0 33 12 39 44h69zM35 294c0 283 193 430 377 430c185 0 306 -123 306 -310
c0 -283 -193 -429 -376 -429c-185 0 -307 124 -307 309zM618 404c0 148 -90 230 -212 230c-174 0 -271 -161 -271 -330c0 -148 90 -229 212 -229c174 0 271 160 271 329z" />
    <glyph glyph-name="Odieresis" unicode="&#xd6;" horiz-adv-x="753" 
d="M230 813c0 38 29 65 66 65c31 0 52 -23 52 -52c0 -39 -31 -66 -65 -66c-30 0 -53 22 -53 53zM550 813c0 38 29 65 66 65c31 0 52 -23 52 -52c0 -39 -31 -66 -65 -66c-30 0 -53 22 -53 53zM35 294c0 283 193 430 377 430c185 0 306 -123 306 -310
c0 -283 -193 -429 -376 -429c-185 0 -307 124 -307 309zM618 404c0 148 -90 230 -212 230c-174 0 -271 -161 -271 -330c0 -148 90 -229 212 -229c174 0 271 160 271 329z" />
    <glyph glyph-name="multiply" unicode="&#xd7;" horiz-adv-x="540" 
d="M101 56l-56 56l169 175l-168 175l57 57l167 -174l167 174l57 -56l-169 -175l170 -176l-56 -57l-170 175z" />
    <glyph glyph-name="Oslash" unicode="&#xd8;" horiz-adv-x="753" 
d="M35 294c0 283 193 430 377 430c84 0 154 -25 206 -70l77 77l59 -57l-82 -83c30 -48 46 -109 46 -177c0 -283 -193 -429 -376 -429c-82 0 -152 24 -204 68l-73 -74l-59 57l78 78c-32 49 -49 110 -49 180zM135 304c0 -45 8 -83 23 -115l391 395c-37 33 -87 50 -143 50
c-174 0 -271 -161 -271 -330zM618 404c0 43 -7 80 -21 112l-389 -393c36 -32 84 -48 139 -48c174 0 271 160 271 329z" />
    <glyph glyph-name="Ugrave" unicode="&#xd9;" horiz-adv-x="666" 
d="M562 709h99l-104 -493c-31 -147 -131 -231 -269 -231c-141 0 -232 76 -232 211c0 23 2 47 8 74l93 439h94l-92 -451c-4 -19 -6 -37 -6 -54c0 -78 44 -128 140 -128c87 0 147 55 167 149zM391 759l-107 119h118l75 -119h-86z" />
    <glyph glyph-name="Uacute" unicode="&#xda;" horiz-adv-x="666" 
d="M562 709h99l-104 -493c-31 -147 -131 -231 -269 -231c-141 0 -232 76 -232 211c0 23 2 47 8 74l93 439h94l-92 -451c-4 -19 -6 -37 -6 -54c0 -78 44 -128 140 -128c87 0 147 55 167 149zM588 878l-153 -119h-97l119 119h131z" />
    <glyph glyph-name="Ucircumflex" unicode="&#xdb;" horiz-adv-x="666" 
d="M562 709h99l-104 -493c-31 -147 -131 -231 -269 -231c-141 0 -232 76 -232 211c0 23 2 47 8 74l93 439h94l-92 -451c-4 -19 -6 -37 -6 -54c0 -78 44 -128 140 -128c87 0 147 55 167 149zM329 759h-87l135 119h120l90 -119h-83l-74 64z" />
    <glyph glyph-name="Udieresis" unicode="&#xdc;" horiz-adv-x="666" 
d="M257 813c0 38 29 65 66 65c31 0 52 -23 52 -52c0 -39 -31 -66 -65 -66c-30 0 -53 22 -53 53zM467 813c0 38 29 65 66 65c31 0 52 -23 52 -52c0 -39 -31 -66 -65 -66c-30 0 -53 22 -53 53zM562 709h99l-104 -493c-31 -147 -131 -231 -269 -231c-141 0 -232 76 -232 211
c0 23 2 47 8 74l93 439h94l-92 -451c-4 -19 -6 -37 -6 -54c0 -78 44 -128 140 -128c87 0 147 55 167 149z" />
    <glyph glyph-name="Yacute" unicode="&#xdd;" horiz-adv-x="611" 
d="M257 305l-162 404h103l123 -311l228 311h117l-313 -410l-62 -299h-98zM566 878l-153 -119h-97l119 119h131z" />
    <glyph glyph-name="Thorn" unicode="&#xde;" horiz-adv-x="594" 
d="M350 483h-134l-52 -241h139c93 0 162 52 162 142c0 59 -41 99 -115 99zM113 0h-98l150 709h98l-30 -139h133c123 0 198 -77 198 -180c0 -144 -116 -235 -261 -235h-157z" />
    <glyph glyph-name="germandbls" unicode="&#xdf;" horiz-adv-x="572" 
d="M359 329c0 -17 17 -31 33 -44l28 -23c39 -32 70 -76 70 -126c0 -66 -50 -151 -167 -151c-82 0 -153 51 -153 134c0 8 0 17 2 26l87 13c-2 -7 -3 -14 -3 -21c0 -32 15 -74 71 -74c52 0 69 38 69 61c0 30 -15 43 -38 63l-25 21c-41 34 -70 75 -70 119c0 61 37 96 78 117
l35 18c41 21 76 47 76 95c0 41 -36 84 -106 84c-58 0 -119 -35 -141 -140l-106 -501h-94l108 516c30 145 129 208 239 208c127 0 195 -77 195 -162c0 -99 -67 -143 -121 -169l-31 -15c-20 -10 -36 -22 -36 -49z" />
    <glyph glyph-name="agrave" unicode="&#xe0;" horiz-adv-x="567" 
d="M262 543l-94 146h112l56 -146h-74zM266 414c-105 0 -161 -115 -161 -212c0 -76 37 -131 114 -131c92 0 159 95 159 219c0 69 -34 124 -112 124zM424 481h93l-75 -356c-11 -50 -11 -89 -11 -109c0 -3 0 -8 1 -16h-89c-1 5 -2 15 -2 28c0 7 0 18 2 33
c-33 -40 -84 -71 -143 -71c-125 0 -190 93 -190 211c0 156 102 294 251 294c81 0 129 -37 150 -75z" />
    <glyph glyph-name="aacute" unicode="&#xe1;" horiz-adv-x="567" 
d="M488 689l-155 -146h-84l115 146h124zM266 414c-105 0 -161 -115 -161 -212c0 -76 37 -131 114 -131c92 0 159 95 159 219c0 69 -34 124 -112 124zM424 481h93l-75 -356c-11 -50 -11 -89 -11 -109c0 -3 0 -8 1 -16h-89c-1 5 -2 15 -2 28c0 7 0 18 2 33
c-33 -40 -84 -71 -143 -71c-125 0 -190 93 -190 211c0 156 102 294 251 294c81 0 129 -37 150 -75z" />
    <glyph glyph-name="acircumflex" unicode="&#xe2;" horiz-adv-x="567" 
d="M221 545h-90l131 139h113l71 -139h-85l-52 81zM266 414c-105 0 -161 -115 -161 -212c0 -76 37 -131 114 -131c92 0 159 95 159 219c0 69 -34 124 -112 124zM424 481h93l-75 -356c-11 -50 -11 -89 -11 -109c0 -3 0 -8 1 -16h-89c-1 5 -2 15 -2 28c0 7 0 18 2 33
c-33 -40 -84 -71 -143 -71c-125 0 -190 93 -190 211c0 156 102 294 251 294c81 0 129 -37 150 -75z" />
    <glyph glyph-name="atilde" unicode="&#xe3;" horiz-adv-x="567" 
d="M216 554h-70c10 91 59 126 114 126c28 0 51 -12 68 -24l12 -8c12 -8 21 -14 36 -14c19 0 33 12 39 44h69c-16 -95 -58 -126 -113 -126c-28 0 -51 12 -68 24l-12 8c-12 8 -21 14 -36 14c-19 0 -33 -12 -39 -44zM266 414c-105 0 -161 -115 -161 -212
c0 -76 37 -131 114 -131c92 0 159 95 159 219c0 69 -34 124 -112 124zM424 481h93l-75 -356c-11 -50 -11 -89 -11 -109c0 -3 0 -8 1 -16h-89c-1 5 -2 15 -2 28c0 7 0 18 2 33c-33 -40 -84 -71 -143 -71c-125 0 -190 93 -190 211c0 156 102 294 251 294c81 0 129 -37 150 -75
z" />
    <glyph glyph-name="adieresis" unicode="&#xe4;" horiz-adv-x="567" 
d="M156 614c0 35 29 65 64 65c32 0 53 -25 53 -53c0 -37 -33 -63 -66 -63c-29 0 -51 23 -51 51zM351 614c0 35 29 65 64 65c32 0 53 -25 53 -53c0 -37 -33 -63 -66 -63c-29 0 -51 23 -51 51zM266 414c-105 0 -161 -115 -161 -212c0 -76 37 -131 114 -131
c92 0 159 95 159 219c0 69 -34 124 -112 124zM424 481h93l-75 -356c-11 -50 -11 -89 -11 -109c0 -3 0 -8 1 -16h-89c-1 5 -2 15 -2 28c0 7 0 18 2 33c-33 -40 -84 -71 -143 -71c-125 0 -190 93 -190 211c0 156 102 294 251 294c81 0 129 -37 150 -75z" />
    <glyph glyph-name="aring" unicode="&#xe5;" horiz-adv-x="567" 
d="M321 750c58 0 103 -45 103 -100c0 -61 -55 -119 -120 -119c-58 0 -105 43 -105 98c0 72 61 121 122 121zM263 637c0 -26 17 -42 43 -42c28 0 52 20 52 50c0 24 -18 42 -44 42c-25 0 -51 -20 -51 -50zM266 414c-105 0 -161 -115 -161 -212c0 -76 37 -131 114 -131
c92 0 159 95 159 219c0 69 -34 124 -112 124zM424 481h93l-75 -356c-11 -50 -11 -89 -11 -109c0 -3 0 -8 1 -16h-89c-1 5 -2 15 -2 28c0 7 0 18 2 33c-33 -40 -84 -71 -143 -71c-125 0 -190 93 -190 211c0 156 102 294 251 294c81 0 129 -37 150 -75z" />
    <glyph glyph-name="ae" unicode="&#xe6;" horiz-adv-x="853" 
d="M313 284c28 1 47 18 47 50c0 42 -34 83 -109 83c-58 0 -105 -34 -120 -84l-81 26c27 87 117 137 212 137c78 0 132 -31 160 -74c48 48 111 74 177 74c130 0 199 -80 199 -194c0 -39 -9 -72 -14 -88h-354c-1 -7 -1 -11 -1 -17c0 -79 55 -129 122 -129c75 0 120 41 142 80
l71 -46c-34 -63 -111 -117 -211 -117c-82 0 -153 36 -188 106c-35 -52 -94 -106 -195 -106c-109 0 -172 60 -172 139c0 92 79 152 175 155zM95 129c0 -43 38 -66 83 -66c61 0 141 40 159 153l-158 -7c-42 -2 -84 -26 -84 -80zM594 413c-81 0 -134 -60 -151 -123h256
c1 4 2 12 2 20c0 48 -27 103 -107 103z" />
    <glyph glyph-name="ccedilla" unicode="&#xe7;" horiz-adv-x="498" 
d="M116 -52l50 44c-101 24 -161 108 -161 215c0 171 118 289 263 289c131 0 183 -84 200 -152l-87 -30c-12 51 -48 98 -119 98c-82 0 -162 -68 -162 -204c0 -85 52 -139 131 -139c74 0 112 47 134 91l80 -35c-36 -69 -101 -134 -204 -140l-44 -37c45 -6 68 -37 68 -72
c0 -52 -47 -92 -115 -92c-70 0 -112 44 -124 71l52 32c6 -14 25 -48 71 -48c23 0 46 11 46 35c0 20 -19 33 -43 33c-3 0 -9 0 -14 -1z" />
    <glyph glyph-name="egrave" unicode="&#xe8;" horiz-adv-x="528" 
d="M281 543l-94 146h112l56 -146h-74zM118 290h256c1 4 2 12 2 20c0 48 -27 103 -107 103c-81 0 -134 -60 -151 -123zM459 214h-354c-1 -7 -1 -11 -1 -17c0 -79 55 -129 122 -129c75 0 120 41 142 80l71 -46c-34 -63 -111 -117 -211 -117c-119 0 -218 75 -218 219
c0 182 130 292 264 292c130 0 199 -80 199 -194c0 -39 -9 -72 -14 -88z" />
    <glyph glyph-name="eacute" unicode="&#xe9;" horiz-adv-x="528" 
d="M469 689l-155 -146h-84l115 146h124zM118 290h256c1 4 2 12 2 20c0 48 -27 103 -107 103c-81 0 -134 -60 -151 -123zM459 214h-354c-1 -7 -1 -11 -1 -17c0 -79 55 -129 122 -129c75 0 120 41 142 80l71 -46c-34 -63 -111 -117 -211 -117c-119 0 -218 75 -218 219
c0 182 130 292 264 292c130 0 199 -80 199 -194c0 -39 -9 -72 -14 -88z" />
    <glyph glyph-name="ecircumflex" unicode="&#xea;" horiz-adv-x="528" 
d="M230 545h-90l131 139h113l71 -139h-85l-52 81zM118 290h256c1 4 2 12 2 20c0 48 -27 103 -107 103c-81 0 -134 -60 -151 -123zM459 214h-354c-1 -7 -1 -11 -1 -17c0 -79 55 -129 122 -129c75 0 120 41 142 80l71 -46c-34 -63 -111 -117 -211 -117
c-119 0 -218 75 -218 219c0 182 130 292 264 292c130 0 199 -80 199 -194c0 -39 -9 -72 -14 -88z" />
    <glyph glyph-name="edieresis" unicode="&#xeb;" horiz-adv-x="528" 
d="M152 614c0 35 29 65 64 65c32 0 53 -25 53 -53c0 -37 -33 -63 -66 -63c-29 0 -51 23 -51 51zM347 614c0 35 29 65 64 65c32 0 53 -25 53 -53c0 -37 -33 -63 -66 -63c-29 0 -51 23 -51 51zM118 290h256c1 4 2 12 2 20c0 48 -27 103 -107 103c-81 0 -134 -60 -151 -123z
M459 214h-354c-1 -7 -1 -11 -1 -17c0 -79 55 -129 122 -129c75 0 120 41 142 80l71 -46c-34 -63 -111 -117 -211 -117c-119 0 -218 75 -218 219c0 182 130 292 264 292c130 0 199 -80 199 -194c0 -39 -9 -72 -14 -88z" />
    <glyph glyph-name="igrave" unicode="&#xec;" horiz-adv-x="257" 
d="M99 0h-94l103 481h94zM130 543l-94 146h112l56 -146h-74z" />
    <glyph glyph-name="iacute" unicode="&#xed;" horiz-adv-x="257" 
d="M358 689l-155 -146h-84l115 146h124zM99 0h-94l103 481h94z" />
    <glyph glyph-name="icircumflex" unicode="&#xee;" horiz-adv-x="257" 
d="M99 0h-94l103 481h94zM98 545h-90l131 139h113l71 -139h-85l-52 81z" />
    <glyph glyph-name="idieresis" unicode="&#xef;" horiz-adv-x="257" 
d="M99 0h-94l103 481h94zM59 615c0 31 24 60 58 60c29 0 49 -21 49 -48c0 -34 -28 -58 -59 -58c-30 0 -48 20 -48 46zM200 615c0 31 24 60 58 60c29 0 49 -21 49 -48c0 -34 -28 -58 -59 -58c-30 0 -48 20 -48 46z" />
    <glyph glyph-name="eth" unicode="&#xf0;" horiz-adv-x="541" 
d="M529 612l-102 -38c38 -58 65 -135 65 -233c0 -200 -100 -357 -269 -357c-135 0 -213 95 -213 215c0 138 97 269 248 269c67 0 122 -29 146 -69c-9 57 -30 106 -59 145l-123 -46l-25 65l96 36c-31 27 -67 46 -101 58l38 72c36 -12 97 -42 150 -97l122 46zM390 257
c0 83 -57 130 -129 130c-78 0 -157 -63 -157 -188c0 -68 44 -132 123 -132c75 0 163 62 163 190z" />
    <glyph glyph-name="ntilde" unicode="&#xf1;" horiz-adv-x="555" 
d="M228 554h-70c10 91 59 126 114 126c28 0 51 -12 68 -24l12 -8c12 -8 21 -14 36 -14c19 0 33 12 39 44h69c-16 -95 -58 -126 -113 -126c-28 0 -51 12 -68 24l-12 8c-12 8 -21 14 -36 14c-19 0 -33 -12 -39 -44zM409 0h-94l62 291c2 10 4 22 4 37c0 53 -30 84 -88 84
c-76 0 -120 -67 -134 -132l-60 -280h-94l84 396c10 45 12 83 12 85h92c0 -4 -2 -31 -6 -53c37 50 91 67 149 67c84 0 143 -56 143 -144c0 -14 -2 -30 -5 -46z" />
    <glyph glyph-name="ograve" unicode="&#xf2;" horiz-adv-x="541" 
d="M270 543l-94 146h112l56 -146h-74zM267 412c-82 0 -161 -72 -161 -203c0 -85 48 -140 122 -140c83 0 162 73 162 204c0 83 -46 139 -123 139zM486 275c0 -162 -112 -290 -262 -290c-136 0 -214 101 -214 222c0 165 113 289 263 289c139 0 213 -100 213 -221z" />
    <glyph glyph-name="oacute" unicode="&#xf3;" horiz-adv-x="541" 
d="M487 689l-155 -146h-84l115 146h124zM267 412c-82 0 -161 -72 -161 -203c0 -85 48 -140 122 -140c83 0 162 73 162 204c0 83 -46 139 -123 139zM486 275c0 -162 -112 -290 -262 -290c-136 0 -214 101 -214 222c0 165 113 289 263 289c139 0 213 -100 213 -221z" />
    <glyph glyph-name="ocircumflex" unicode="&#xf4;" horiz-adv-x="541" 
d="M235 545h-90l131 139h113l71 -139h-85l-52 81zM267 412c-82 0 -161 -72 -161 -203c0 -85 48 -140 122 -140c83 0 162 73 162 204c0 83 -46 139 -123 139zM486 275c0 -162 -112 -290 -262 -290c-136 0 -214 101 -214 222c0 165 113 289 263 289c139 0 213 -100 213 -221z
" />
    <glyph glyph-name="otilde" unicode="&#xf5;" horiz-adv-x="541" 
d="M201 554h-70c10 91 59 126 114 126c28 0 51 -12 68 -24l12 -8c12 -8 21 -14 36 -14c19 0 33 12 39 44h69c-16 -95 -58 -126 -113 -126c-28 0 -51 12 -68 24l-12 8c-12 8 -21 14 -36 14c-19 0 -33 -12 -39 -44zM267 412c-82 0 -161 -72 -161 -203c0 -85 48 -140 122 -140
c83 0 162 73 162 204c0 83 -46 139 -123 139zM486 275c0 -162 -112 -290 -262 -290c-136 0 -214 101 -214 222c0 165 113 289 263 289c139 0 213 -100 213 -221z" />
    <glyph glyph-name="odieresis" unicode="&#xf6;" horiz-adv-x="541" 
d="M161 614c0 35 29 65 64 65c32 0 53 -25 53 -53c0 -37 -33 -63 -66 -63c-29 0 -51 23 -51 51zM356 614c0 35 29 65 64 65c32 0 53 -25 53 -53c0 -37 -33 -63 -66 -63c-29 0 -51 23 -51 51zM267 412c-82 0 -161 -72 -161 -203c0 -85 48 -140 122 -140c83 0 162 73 162 204
c0 83 -46 139 -123 139zM486 275c0 -162 -112 -290 -262 -290c-136 0 -214 101 -214 222c0 165 113 289 263 289c139 0 213 -100 213 -221z" />
    <glyph glyph-name="divide" unicode="&#xf7;" horiz-adv-x="567" 
d="M198 465c0 35 30 64 65 64s64 -29 64 -64s-29 -65 -64 -65s-65 30 -65 65zM198 110c0 35 30 64 65 64s64 -29 64 -64s-29 -65 -64 -65s-65 30 -65 65zM35 246v83h457v-83h-457z" />
    <glyph glyph-name="oslash" unicode="&#xf8;" horiz-adv-x="541" 
d="M20 -28l-52 54l69 66c-18 34 -27 73 -27 115c0 165 113 289 263 289c57 0 103 -16 138 -45l61 58l52 -54l-66 -63c19 -34 28 -74 28 -117c0 -162 -112 -290 -262 -290c-58 0 -105 18 -140 48zM390 273c0 17 -2 33 -6 48l-234 -225c20 -17 47 -27 78 -27
c83 0 162 73 162 204zM267 412c-82 0 -161 -72 -161 -203c0 -17 2 -33 5 -46l233 223c-20 17 -46 26 -77 26z" />
    <glyph glyph-name="ugrave" unicode="&#xf9;" horiz-adv-x="544" 
d="M318 56c-32 -45 -86 -66 -131 -66c-99 0 -155 62 -155 155c0 17 2 36 6 55l60 281h94l-59 -279c-3 -16 -5 -31 -5 -46c0 -49 22 -86 85 -86c72 0 115 62 129 130l59 281h93l-75 -356c-11 -50 -11 -89 -11 -109c0 -3 0 -8 1 -16h-90c-1 5 -2 15 -2 28c0 5 0 15 1 28z
M272 543l-94 146h112l56 -146h-74z" />
    <glyph glyph-name="uacute" unicode="&#xfa;" horiz-adv-x="544" 
d="M318 56c-32 -45 -86 -66 -131 -66c-99 0 -155 62 -155 155c0 17 2 36 6 55l60 281h94l-59 -279c-3 -16 -5 -31 -5 -46c0 -49 22 -86 85 -86c72 0 115 62 129 130l59 281h93l-75 -356c-11 -50 -11 -89 -11 -109c0 -3 0 -8 1 -16h-90c-1 5 -2 15 -2 28c0 5 0 15 1 28z
M487 689l-155 -146h-84l115 146h124z" />
    <glyph glyph-name="ucircumflex" unicode="&#xfb;" horiz-adv-x="544" 
d="M318 56c-32 -45 -86 -66 -131 -66c-99 0 -155 62 -155 155c0 17 2 36 6 55l60 281h94l-59 -279c-3 -16 -5 -31 -5 -46c0 -49 22 -86 85 -86c72 0 115 62 129 130l59 281h93l-75 -356c-11 -50 -11 -89 -11 -109c0 -3 0 -8 1 -16h-90c-1 5 -2 15 -2 28c0 5 0 15 1 28z
M235 545h-90l131 139h113l71 -139h-85l-52 81z" />
    <glyph glyph-name="udieresis" unicode="&#xfc;" horiz-adv-x="544" 
d="M318 56c-32 -45 -86 -66 -131 -66c-99 0 -155 62 -155 155c0 17 2 36 6 55l60 281h94l-59 -279c-3 -16 -5 -31 -5 -46c0 -49 22 -86 85 -86c72 0 115 62 129 130l59 281h93l-75 -356c-11 -50 -11 -89 -11 -109c0 -3 0 -8 1 -16h-90c-1 5 -2 15 -2 28c0 5 0 15 1 28z
M166 614c0 35 29 65 64 65c32 0 53 -25 53 -53c0 -37 -33 -63 -66 -63c-29 0 -51 23 -51 51zM361 614c0 35 29 65 64 65c32 0 53 -25 53 -53c0 -37 -33 -63 -66 -63c-29 0 -51 23 -51 51z" />
    <glyph glyph-name="yacute" unicode="&#xfd;" horiz-adv-x="504" 
d="M448 689l-155 -146h-84l115 146h124zM78 -190h-108l181 273l-118 398h102l85 -302l188 302h111z" />
    <glyph glyph-name="thorn" unicode="&#xfe;" horiz-adv-x="580" 
d="M-35 -190l194 914h94l-62 -294c37 42 93 64 150 64c125 0 183 -92 183 -206c0 -170 -100 -301 -252 -301c-66 0 -130 32 -158 86l-56 -263h-93zM306 409c-82 0 -160 -73 -160 -204c0 -85 46 -134 120 -134c81 0 162 75 162 206c0 85 -44 132 -122 132z" />
    <glyph glyph-name="ydieresis" unicode="&#xff;" horiz-adv-x="504" 
d="M133 614c0 35 29 65 64 65c32 0 53 -25 53 -53c0 -37 -33 -63 -66 -63c-29 0 -51 23 -51 51zM328 614c0 35 29 65 64 65c32 0 53 -25 53 -53c0 -37 -33 -63 -66 -63c-29 0 -51 23 -51 51zM78 -190h-108l181 273l-118 398h102l85 -302l188 302h111z" />
    <glyph glyph-name="dotlessi" unicode="&#x131;" horiz-adv-x="257" 
d="M99 0h-94l103 481h94z" />
    <glyph glyph-name="Lslash" unicode="&#x141;" horiz-adv-x="538" 
d="M438 0h-423l62 296l-96 -39l18 87l97 39l69 326h98l-60 -283l180 73l-18 -87l-181 -73l-52 -247h325z" />
    <glyph glyph-name="lslash" unicode="&#x142;" horiz-adv-x="289" 
d="M99 0h-94l66 308l-99 -40l19 87l98 40l70 329h94l-61 -288l103 42l-19 -87l-103 -42z" />
    <glyph glyph-name="OE" unicode="&#x152;" horiz-adv-x="1103" 
d="M618 404c0 148 -90 230 -212 230c-174 0 -271 -161 -271 -330c0 -148 90 -229 212 -229c174 0 271 160 271 329zM968 0h-426l13 60c-62 -49 -137 -75 -213 -75c-185 0 -307 124 -307 309c0 283 193 430 377 430c120 0 207 -52 253 -141l27 126h426l-19 -91h-328l-46 -218
h297l-20 -92h-297l-46 -217h328z" />
    <glyph glyph-name="oe" unicode="&#x153;" horiz-adv-x="905" 
d="M605 -15c-78 0 -147 32 -185 94c-48 -58 -116 -94 -196 -94c-136 0 -214 101 -214 222c0 165 113 289 263 289c85 0 146 -38 180 -95c51 61 124 95 198 95c130 0 199 -80 199 -194c0 -39 -9 -72 -14 -88h-354c-1 -7 -1 -11 -1 -17c0 -79 55 -129 122 -129
c75 0 120 41 142 80l71 -46c-34 -63 -111 -117 -211 -117zM495 290h256c1 4 2 12 2 20c0 48 -27 103 -107 103c-81 0 -134 -60 -151 -123zM390 273c0 83 -46 139 -123 139c-82 0 -161 -72 -161 -203c0 -85 48 -140 122 -140c83 0 162 73 162 204z" />
    <glyph glyph-name="Scaron" unicode="&#x160;" horiz-adv-x="581" 
d="M264 73c81 1 136 45 136 111c0 41 -22 79 -76 103l-94 42c-79 35 -129 94 -129 183c0 118 102 212 238 212c173 0 232 -122 232 -201l-93 -18c0 37 -18 132 -147 132c-73 0 -130 -49 -130 -112c0 -47 25 -79 66 -98l97 -45c94 -44 138 -109 138 -187
c0 -111 -96 -210 -238 -210c-185 0 -259 126 -259 236c0 2 0 8 1 15l99 17c-1 -9 -1 -16 -1 -20c0 -80 46 -160 160 -160zM477 878h93l-140 -119h-120l-85 119h82l69 -64z" />
    <glyph glyph-name="scaron" unicode="&#x161;" horiz-adv-x="441" 
d="M360 687h91l-130 -142h-115l-70 142h84l52 -81zM-10 150l83 19c1 -57 40 -104 105 -104c53 0 77 32 77 64c0 24 -15 43 -45 57l-70 32c-55 25 -86 67 -86 122c0 81 66 156 176 156c126 0 166 -88 171 -139l-84 -23c-6 37 -27 83 -96 83c-48 0 -76 -30 -76 -63
c0 -27 14 -43 38 -54l66 -30c64 -29 100 -77 100 -134c0 -62 -48 -151 -176 -151c-132 0 -183 96 -183 165z" />
    <glyph glyph-name="Ydieresis" unicode="&#x178;" horiz-adv-x="611" 
d="M226 813c0 38 29 65 66 65c31 0 52 -23 52 -52c0 -39 -31 -66 -65 -66c-30 0 -53 22 -53 53zM416 813c0 38 29 65 66 65c31 0 52 -23 52 -52c0 -39 -31 -66 -65 -66c-30 0 -53 22 -53 53zM257 305l-162 404h103l123 -311l228 311h117l-313 -410l-62 -299h-98z" />
    <glyph glyph-name="Zcaron" unicode="&#x17d;" horiz-adv-x="614" 
d="M499 0h-529l20 96l510 523h-389l19 90h514l-20 -93l-512 -525h406zM499 878h93l-140 -119h-120l-85 119h82l69 -64z" />
    <glyph glyph-name="zcaron" unicode="&#x17e;" horiz-adv-x="473" 
d="M365 687h91l-130 -142h-115l-70 142h84l52 -81zM359 0h-389l18 84l327 312h-252l18 85h372l-18 -85l-327 -311h269z" />
    <glyph glyph-name="florin" unicode="&#x192;" horiz-adv-x="481" 
d="M106 20l76 378h-111v83h127l23 113c20 102 92 145 165 145c44 0 62 -6 74 -10v-83c-6 2 -22 7 -52 7c-35 0 -81 -13 -97 -92l-16 -80h129v-83h-146l-82 -411c-20 -102 -92 -145 -165 -145c-41 0 -58 4 -77 10v83c14 -4 32 -7 56 -7c35 0 80 10 96 92z" />
    <glyph glyph-name="circumflex" unicode="&#x2c6;" horiz-adv-x="355" 
d="M155 545h-90l131 139h113l71 -139h-85l-52 81z" />
    <glyph glyph-name="caron" unicode="&#x2c7;" horiz-adv-x="355" 
d="M289 687h91l-130 -142h-115l-70 142h84l52 -81z" />
    <glyph glyph-name="uni02C9" unicode="&#x2c9;" horiz-adv-x="330" 
d="M338 577h-273l17 81h273z" />
    <glyph glyph-name="breve" unicode="&#x2d8;" horiz-adv-x="335" 
d="M187 544c-80 0 -122 56 -122 117c0 9 1 18 3 27h69c-1 -4 -1 -8 -1 -9c0 -26 15 -55 61 -55c51 0 77 36 86 64h77c-16 -71 -71 -144 -173 -144z" />
    <glyph glyph-name="dotaccent" unicode="&#x2d9;" horiz-adv-x="169" 
d="M65 608c0 36 31 72 71 72c34 0 58 -26 58 -57c0 -39 -33 -72 -71 -72c-34 0 -58 25 -58 57z" />
    <glyph glyph-name="ring" unicode="&#x2da;" horiz-adv-x="265" 
d="M187 750c58 0 103 -45 103 -100c0 -61 -55 -119 -120 -119c-58 0 -105 43 -105 98c0 72 61 121 122 121zM129 637c0 -26 17 -42 43 -42c28 0 52 20 52 50c0 24 -18 42 -44 42c-25 0 -51 -20 -51 -50z" />
    <glyph glyph-name="ogonek" unicode="&#x2db;" horiz-adv-x="233" 
d="M27 -216c-56 0 -93 33 -93 84c0 84 77 128 127 148l62 -16c-44 -19 -108 -54 -108 -109c0 -26 20 -38 44 -38c7 0 15 0 33 3l-14 -64c-14 -5 -26 -8 -51 -8z" />
    <glyph glyph-name="tilde" unicode="&#x2dc;" horiz-adv-x="378" 
d="M135 554h-70c10 91 59 126 114 126c28 0 51 -12 68 -24l12 -8c12 -8 21 -14 36 -14c19 0 33 12 39 44h69c-16 -95 -58 -126 -113 -126c-28 0 -51 12 -68 24l-12 8c-12 8 -21 14 -36 14c-19 0 -33 -12 -39 -44z" />
    <glyph glyph-name="hungarumlaut" unicode="&#x2dd;" horiz-adv-x="374" 
d="M255 689l-121 -146h-69l82 146h108zM399 689l-131 -146h-69l92 146h108z" />
    <glyph glyph-name="uni0394" unicode="&#x394;" horiz-adv-x="657" 
d="M497 90l-193 507l-190 -507h383zM-25 0l278 709h105l279 -709h-662z" />
    <glyph glyph-name="uni03A9" unicode="&#x3a9;" horiz-adv-x="816" 
d="M408 636c-123 0 -253 -86 -253 -248c0 -145 111 -235 210 -256v-132h-305v88h199c-102 37 -204 145 -204 299c0 212 169 337 353 337s353 -125 353 -337c0 -154 -102 -262 -205 -299h200v-88h-305v132c99 21 210 111 210 256c0 162 -130 248 -253 248z" />
    <glyph glyph-name="uni03BC" unicode="&#x3bc;" horiz-adv-x="577" 
d="M65 -190v671h95v-289c0 -66 30 -124 109 -124c76 0 114 50 114 123v290h94v-392c0 -47 4 -81 5 -89h-90c-2 11 -4 38 -4 58c-26 -50 -86 -73 -142 -73c-33 0 -62 7 -87 20v-195h-94z" />
    <glyph glyph-name="pi" unicode="&#x3c0;" horiz-adv-x="625" 
d="M480 399v-277c0 -36 24 -49 54 -49c10 0 21 1 31 4v-72c-12 -5 -31 -12 -61 -12c-82 0 -118 58 -118 119v287h-165v-399h-94v399h-82v82h518v-82h-83z" />
    <glyph glyph-name="uni2007" unicode="&#x2007;" horiz-adv-x="604" 
 />
    <glyph glyph-name="uni2008" unicode="&#x2008;" horiz-adv-x="262" 
 />
    <glyph glyph-name="uni200B" unicode="&#x200b;" horiz-adv-x="0" 
 />
    <glyph glyph-name="endash" unicode="&#x2013;" horiz-adv-x="639" 
d="M552 246h-512l17 82h512z" />
    <glyph glyph-name="emdash" unicode="&#x2014;" horiz-adv-x="1100" 
d="M1003 246h-953l17 82h953z" />
    <glyph glyph-name="quoteleft" unicode="&#x2018;" horiz-adv-x="234" 
d="M226 518c0 -40 -33 -71 -75 -71c-39 0 -71 27 -71 76c0 97 79 190 184 195l-10 -50c-52 -9 -97 -51 -107 -97c3 2 13 4 21 4c32 0 58 -22 58 -57z" />
    <glyph glyph-name="quoteright" unicode="&#x2019;" horiz-adv-x="219" 
d="M103 647c0 40 33 71 75 71c39 0 71 -27 71 -76c0 -97 -79 -190 -184 -195l10 50c52 9 97 51 107 97c-3 -2 -13 -4 -21 -4c-32 0 -58 22 -58 57z" />
    <glyph glyph-name="quotesinglbase" unicode="&#x201a;" horiz-adv-x="224" 
d="M-17 52c0 40 33 71 75 71c39 0 71 -27 71 -76c0 -97 -79 -190 -184 -195l10 50c52 9 97 51 107 97c-3 -2 -13 -4 -21 -4c-32 0 -58 22 -58 57z" />
    <glyph glyph-name="quotedblleft" unicode="&#x201c;" horiz-adv-x="408" 
d="M401 526c0 -39 -29 -68 -72 -68c-37 0 -68 26 -68 73c0 93 75 180 177 187l-10 -48c-48 -9 -93 -51 -103 -93c3 2 12 3 20 3c31 0 56 -20 56 -54zM220 526c0 -39 -29 -68 -72 -68c-37 0 -68 26 -68 73c0 93 75 180 177 187l-10 -48c-48 -9 -93 -51 -103 -93
c3 2 12 3 20 3c31 0 56 -20 56 -54z" />
    <glyph glyph-name="quotedblright" unicode="&#x201d;" horiz-adv-x="393" 
d="M102 647c0 39 31 68 72 68c37 0 68 -26 68 -73c0 -93 -75 -182 -177 -187l10 48c49 9 93 49 103 93c-3 -2 -12 -3 -20 -3c-31 0 -56 20 -56 54zM283 647c0 39 31 68 72 68c37 0 68 -26 68 -73c0 -93 -75 -182 -177 -187l10 48c49 9 93 49 103 93c-3 -2 -12 -3 -20 -3
c-31 0 -56 20 -56 54z" />
    <glyph glyph-name="quotedblbase" unicode="&#x201e;" horiz-adv-x="388" 
d="M-18 50c0 39 31 68 72 68c37 0 68 -26 68 -73c0 -93 -75 -182 -177 -187l10 48c49 9 93 49 103 93c-3 -2 -12 -3 -20 -3c-31 0 -56 20 -56 54zM153 50c0 39 31 68 72 68c37 0 68 -26 68 -73c0 -93 -75 -182 -177 -187l10 48c49 9 93 49 103 93c-3 -2 -12 -3 -20 -3
c-31 0 -56 20 -56 54z" />
    <glyph glyph-name="dagger" unicode="&#x2020;" horiz-adv-x="414" 
d="M236 709h82l-32 -149h128l-18 -81h-127l-67 -317h-82l67 317h-127l18 81h126z" />
    <glyph glyph-name="daggerdbl" unicode="&#x2021;" horiz-adv-x="434" 
d="M178 0h-82l31 149h-127l17 81h127l53 249h-127l18 81h126l32 149h82l-32 -149h128l-18 -81h-127l-53 -249h127l-17 -81h-127z" />
    <glyph glyph-name="bullet" unicode="&#x2022;" horiz-adv-x="559" 
d="M60 289c0 115 93 208 207 208s207 -93 207 -208c0 -113 -93 -207 -207 -207s-207 94 -207 207z" />
    <glyph glyph-name="ellipsis" unicode="&#x2026;" horiz-adv-x="871" 
d="M76 -5c-37 0 -61 26 -61 57c0 39 33 73 73 73c37 0 60 -26 60 -58c0 -41 -34 -72 -72 -72zM367 -5c-37 0 -61 26 -61 57c0 39 33 73 73 73c37 0 60 -26 60 -58c0 -41 -34 -72 -72 -72zM659 -5c-37 0 -61 26 -61 57c0 39 33 73 73 73c37 0 60 -26 60 -58
c0 -41 -34 -72 -72 -72z" />
    <glyph glyph-name="perthousand" unicode="&#x2030;" horiz-adv-x="1011" 
d="M208 422c44 0 85 36 85 91c0 40 -27 67 -70 67s-83 -38 -83 -89c0 -40 26 -69 68 -69zM200 344c-83 0 -143 62 -143 141c0 94 79 174 175 174c82 0 144 -63 144 -143c0 -98 -88 -172 -176 -172zM549 74c44 0 85 36 85 91c0 40 -27 67 -70 67s-83 -38 -83 -89
c0 -40 26 -69 68 -69zM732 648l-604 -648h-97l606 648h95zM784 74c44 0 85 36 85 91c0 40 -27 67 -70 67s-83 -38 -83 -89c0 -40 26 -69 68 -69zM776 -4c-47 0 -87 19 -112 51c-33 -32 -78 -51 -123 -51c-83 0 -143 62 -143 141c0 94 79 174 175 174c46 0 85 -20 111 -52
c32 32 76 52 124 52c82 0 144 -63 144 -143c0 -98 -88 -172 -176 -172z" />
    <glyph glyph-name="guilsinglleft" unicode="&#x2039;" horiz-adv-x="284" 
d="M206 99h-93l-98 194l171 188h103l-176 -197z" />
    <glyph glyph-name="guilsinglright" unicode="&#x203a;" horiz-adv-x="284" 
d="M48 481h93l98 -194l-171 -188h-103l176 197z" />
    <glyph glyph-name="uni2042" unicode="&#x2042;" horiz-adv-x="814" 
d="M512 709l-23 -121l117 38l8 -65l-119 -38l56 -93l-59 -42l-56 99l-92 -98l-50 42l93 95l-105 37l32 63l103 -38l19 121h76zM235 311l-23 -121l117 38l8 -65l-119 -38l56 -93l-59 -42l-56 99l-92 -98l-50 42l93 95l-105 37l32 63l103 -38l19 121h76zM647 311l-23 -121
l117 38l8 -65l-119 -38l56 -93l-59 -42l-56 99l-92 -98l-50 42l93 95l-105 37l32 63l103 -38l19 121h76z" />
    <glyph glyph-name="fraction" unicode="&#x2044;" horiz-adv-x="541" 
d="M621 648l-604 -648h-97l606 648h95z" />
    <glyph glyph-name="uni2051" unicode="&#x2051;" horiz-adv-x="441" 
d="M333 709l-23 -121l117 38l8 -65l-119 -38l56 -93l-59 -42l-56 99l-92 -98l-50 42l93 95l-105 37l32 63l103 -38l19 121h76zM235 311l-23 -121l117 38l8 -65l-119 -38l56 -93l-59 -42l-56 99l-92 -98l-50 42l93 95l-105 37l32 63l103 -38l19 121h76z" />
    <glyph glyph-name="uni2070" unicode="&#x2070;" horiz-adv-x="411" 
d="M60 473c0 107 52 243 182 243c88 0 134 -61 134 -137c0 -124 -59 -242 -181 -242c-77 0 -135 50 -135 136zM130 475c0 -39 23 -71 69 -71c76 0 106 105 106 173c0 36 -16 72 -68 72c-87 0 -107 -131 -107 -174z" />
    <glyph glyph-name="uni2074" unicode="&#x2074;" horiz-adv-x="427" 
d="M60 420l16 85l206 204h88l-48 -224h65l-14 -65h-64c0 -1 -1 -4 -16 -76h-76l16 76h-173zM246 485l31 137l-138 -137h107z" />
    <glyph glyph-name="uni2075" unicode="&#x2075;" horiz-adv-x="407" 
d="M55 456l76 7c0 -32 19 -60 60 -60c33 0 68 19 68 64c0 38 -27 56 -59 56c-18 0 -36 -6 -49 -16l-64 36l72 166h213l-13 -66h-158l-31 -72c15 9 41 12 55 12c66 0 112 -37 112 -107c0 -77 -63 -139 -148 -139c-76 0 -134 49 -134 119z" />
    <glyph glyph-name="uni2076" unicode="&#x2076;" horiz-adv-x="390" 
d="M376 693l-27 -56c-18 10 -41 16 -72 16c-49 0 -103 -29 -124 -85c19 19 52 24 75 24c72 0 117 -44 117 -111c0 -91 -77 -144 -154 -144c-69 0 -136 48 -136 146c0 125 88 234 222 234c37 0 76 -6 99 -24zM207 528c-39 0 -73 -27 -73 -68c0 -37 27 -58 62 -58
c33 0 70 22 70 71c0 33 -23 55 -59 55z" />
    <glyph glyph-name="uni2077" unicode="&#x2077;" horiz-adv-x="368" 
d="M393 709l-14 -64c-57 -39 -170 -122 -224 -301h-80c41 176 185 285 207 299h-190l13 66h288z" />
    <glyph glyph-name="uni2078" unicode="&#x2078;" horiz-adv-x="396" 
d="M187 603c0 -24 19 -41 45 -41c30 0 63 15 63 52c0 21 -15 39 -48 41c-36 0 -60 -20 -60 -52zM142 443c0 -29 28 -45 60 -45c41 0 68 21 68 57c0 25 -21 45 -58 45c-40 0 -70 -24 -70 -57zM198 337c-87 0 -133 44 -133 99c0 43 34 83 94 98c-28 11 -47 42 -47 67
c0 66 54 115 142 115c69 0 117 -38 117 -92c0 -39 -25 -78 -76 -96c29 -11 52 -43 52 -72c0 -71 -66 -119 -149 -119z" />
    <glyph glyph-name="uni2079" unicode="&#x2079;" horiz-adv-x="407" 
d="M50 373l30 57c24 -17 54 -25 84 -25c47 0 101 28 114 88c-18 -21 -49 -31 -72 -31c-70 0 -125 45 -125 115c0 87 73 140 153 140c70 0 133 -43 133 -139c0 -137 -69 -240 -207 -240c-39 0 -85 14 -110 35zM217 525c39 0 69 30 69 72c0 34 -27 56 -57 56
c-35 0 -69 -25 -69 -71c0 -35 24 -57 57 -57z" />
    <glyph glyph-name="uni2080" unicode="&#x2080;" horiz-adv-x="411" 
d="M25 57c0 107 52 243 182 243c88 0 134 -61 134 -137c0 -124 -59 -242 -181 -242c-77 0 -135 50 -135 136zM95 59c0 -39 23 -71 69 -71c76 0 106 105 106 173c0 36 -16 72 -68 72c-87 0 -107 -131 -107 -174z" />
    <glyph glyph-name="uni2081" unicode="&#x2081;" horiz-adv-x="290" 
d="M136 -72h-77l56 250h-80l10 51c49 2 87 28 102 64h68z" />
    <glyph glyph-name="uni2082" unicode="&#x2082;" horiz-adv-x="381" 
d="M115 94l63 28c39 17 57 37 57 65c0 23 -17 48 -51 48c-39 0 -66 -24 -66 -77h-75c0 91 60 141 143 141c84 0 127 -51 127 -108c0 -58 -38 -100 -96 -125l-76 -33c-25 -11 -36 -26 -42 -40h184l-14 -65h-274c8 78 46 133 120 166z" />
    <glyph glyph-name="uni2083" unicode="&#x2083;" horiz-adv-x="425" 
d="M138 100l-26 60l114 69h-160l14 65h260l-14 -74l-114 -67c48 -9 85 -50 85 -99c0 -68 -54 -132 -147 -132c-73 0 -135 43 -135 115c0 6 1 14 2 19l69 5c-1 -4 -1 -7 -1 -11c0 -33 26 -62 64 -62c40 0 72 22 72 64c0 33 -28 52 -59 52c-8 0 -19 -2 -24 -4z" />
    <glyph glyph-name="uni2084" unicode="&#x2084;" horiz-adv-x="427" 
d="M5 4l16 85l206 204h88l-48 -224h65l-14 -65h-64c0 -1 -1 -4 -16 -76h-76l16 76h-173zM191 69l31 137l-138 -137h107z" />
    <glyph glyph-name="uni2085" unicode="&#x2085;" horiz-adv-x="407" 
d="M5 40l76 7c0 -32 19 -60 60 -60c33 0 68 19 68 64c0 38 -27 56 -59 56c-18 0 -36 -6 -49 -16l-64 36l72 166h213l-13 -66h-158l-31 -72c15 9 41 12 55 12c66 0 112 -37 112 -107c0 -77 -63 -139 -148 -139c-76 0 -134 49 -134 119z" />
    <glyph glyph-name="uni2086" unicode="&#x2086;" horiz-adv-x="390" 
d="M326 277l-27 -56c-18 10 -41 16 -72 16c-49 0 -103 -29 -124 -85c19 19 52 24 75 24c72 0 117 -44 117 -111c0 -91 -77 -144 -154 -144c-69 0 -136 48 -136 146c0 125 88 234 222 234c37 0 76 -6 99 -24zM157 112c-39 0 -73 -27 -73 -68c0 -37 27 -58 62 -58
c33 0 70 22 70 71c0 33 -23 55 -59 55z" />
    <glyph glyph-name="uni2087" unicode="&#x2087;" horiz-adv-x="368" 
d="M343 293l-14 -64c-57 -39 -170 -122 -224 -301h-80c41 176 185 285 207 299h-190l13 66h288z" />
    <glyph glyph-name="uni2088" unicode="&#x2088;" horiz-adv-x="396" 
d="M137 187c0 -24 19 -41 45 -41c30 0 63 15 63 52c0 21 -15 39 -48 41c-36 0 -60 -20 -60 -52zM92 27c0 -29 28 -45 60 -45c41 0 68 21 68 57c0 25 -21 45 -58 45c-40 0 -70 -24 -70 -57zM148 -79c-87 0 -133 44 -133 99c0 43 34 83 94 98c-28 11 -47 42 -47 67
c0 66 54 115 142 115c69 0 117 -38 117 -92c0 -39 -25 -78 -76 -96c29 -11 52 -43 52 -72c0 -71 -66 -119 -149 -119z" />
    <glyph glyph-name="uni2089" unicode="&#x2089;" horiz-adv-x="407" 
d="M15 -43l30 57c24 -17 54 -25 84 -25c47 0 101 28 114 88c-18 -21 -49 -31 -72 -31c-70 0 -125 45 -125 115c0 87 73 140 153 140c70 0 133 -43 133 -139c0 -137 -69 -240 -207 -240c-39 0 -85 14 -110 35zM182 109c39 0 69 30 69 72c0 34 -27 56 -57 56
c-35 0 -69 -25 -69 -71c0 -35 24 -57 57 -57z" />
    <glyph glyph-name="Euro" unicode="&#x20ac;" horiz-adv-x="689" 
d="M50 365l17 78h87c65 149 215 220 341 220c82 0 155 -25 199 -67l-57 -71c-35 33 -91 52 -150 52c-84 0 -176 -43 -227 -134h316l-54 -78h-292c-6 -26 -10 -53 -10 -83h255l-54 -80h-190c28 -86 107 -132 201 -132c50 0 96 11 134 38l33 -74c-49 -32 -110 -49 -177 -49
c-130 0 -257 78 -291 217h-116l17 80h90c0 29 3 57 8 83h-80z" />
    <glyph glyph-name="uni2113" unicode="&#x2113;" horiz-adv-x="470" 
d="M96 127c0 32 14 91 19 112c-23 -5 -46 -8 -70 -10l18 87c23 4 48 10 73 19l48 230c19 91 77 144 150 144c78 0 121 -47 121 -118c0 -114 -94 -248 -238 -317l-20 -95c-2 -10 -5 -29 -5 -37c0 -45 30 -60 71 -60c43 0 67 15 76 21l-18 -85c-8 -9 -38 -23 -75 -23
c-105 0 -150 57 -150 132zM277 556l-35 -165c67 47 119 114 119 195c0 22 -10 36 -32 36s-42 -17 -52 -66z" />
    <glyph glyph-name="trademark" unicode="&#x2122;" horiz-adv-x="874" 
d="M364 641h-112l-63 -297h-76l63 297h-112l14 68h300zM770 344h-72l49 233l-147 -233h-59l-52 230l-49 -230h-76l77 365h91l56 -254l158 254h101z" />
    <glyph glyph-name="Omega" unicode="&#x2126;" horiz-adv-x="816" 
d="M408 636c-123 0 -253 -86 -253 -248c0 -145 111 -235 210 -256v-132h-305v88h199c-102 37 -204 145 -204 299c0 212 169 337 353 337s353 -125 353 -337c0 -154 -102 -262 -205 -299h200v-88h-305v132c99 21 210 111 210 256c0 162 -130 248 -253 248z" />
    <glyph glyph-name="uni2160" unicode="&#x2160;" horiz-adv-x="493" 
d="M112 648h396l-18 -88h-151l-100 -472h150l-18 -88h-396l18 88h150l100 472h-149z" />
    <glyph glyph-name="uni2161" unicode="&#x2161;" horiz-adv-x="757" 
d="M112 648h660l-18 -88h-141l-100 -472h140l-18 -88h-660l18 88h140l100 472h-139zM229 88h188l100 472h-188z" />
    <glyph glyph-name="uni2162" unicode="&#x2162;" horiz-adv-x="1031" 
d="M692 88l99 472h-183l-99 -472h183zM413 88l99 472h-183l-99 -472h183zM-25 0l18 88h141l99 472h-139l18 88h934l-18 -88h-141l-99 -472h139l-18 -88h-934z" />
    <glyph glyph-name="uni2163" unicode="&#x2163;" horiz-adv-x="982" 
d="M94 560l18 88h895l-18 -88h-115l-264 -472h279l-18 -88h-896l18 88h130l100 472h-129zM319 560l-100 -472h241l-61 472h-80zM502 560l46 -419l226 419h-272z" />
    <glyph glyph-name="uni2164" unicode="&#x2164;" horiz-adv-x="765" 
d="M-17 88h265l-61 472h-108l18 88h693l-18 -88h-110l-264 -472h269l-18 -88h-684zM290 560l46 -419l226 419h-272z" />
    <glyph glyph-name="uni2165" unicode="&#x2165;" horiz-adv-x="982" 
d="M84 560l18 88h895l-18 -88h-130l-100 -472h130l-18 -88h-896l18 88h275l-61 472h-113zM672 560l-264 -472h245l100 472h-81zM300 560l46 -419l226 419h-272z" />
    <glyph glyph-name="uni2166" unicode="&#x2166;" horiz-adv-x="1270" 
d="M345 141l227 419h-272zM653 88l99 472h-81l-263 -472h245zM931 88l99 472h-182l-99 -472h182zM1148 0h-1183l18 88h274l-59 472h-115l18 88h1183l-18 -88h-140l-99 -472h139z" />
    <glyph glyph-name="uni2167" unicode="&#x2167;" horiz-adv-x="1529" 
d="M94 560l18 88h1432l-18 -88h-136l-100 -472h135l-18 -88h-1432l18 88h270l-56 472h-113zM852 560l-100 -472h173l100 472h-173zM1121 560l-100 -472h173l100 472h-173zM672 560l-259 -472h243l100 472h-84zM309 560l42 -419l222 419h-264z" />
    <glyph glyph-name="uni2168" unicode="&#x2168;" horiz-adv-x="952" 
d="M94 560l18 88h865l-18 -88h-105l-222 -243l112 -229h115l-18 -88h-866l18 88h130l100 472h-129zM525 317l-120 243h-86l-100 -472h93zM515 560l79 -168l150 168h-229zM561 243l-142 -155h216z" />
    <glyph glyph-name="uni2169" unicode="&#x2169;" horiz-adv-x="733" 
d="M306 317l-120 243h-102l18 88h656l-18 -88h-105l-222 -243l112 -229h115l-18 -88h-657l18 88h110zM296 560l79 -168l150 168h-229zM342 243l-142 -155h216z" />
    <glyph glyph-name="uni216C" unicode="&#x216c;" horiz-adv-x="623" 
d="M112 648h366l-18 -88h-141l-100 -472h212l41 193h96l-59 -281h-534l18 88h130l100 472h-129z" />
    <glyph glyph-name="uni216D" unicode="&#x216d;" horiz-adv-x="711" 
d="M621 648h95l-48 -224h-95c-4 89 -90 150 -186 150c-118 0 -246 -93 -246 -300c0 -127 88 -202 198 -202c119 0 178 73 192 140l4 19h95l-49 -231h-93l10 52c-42 -43 -96 -67 -168 -67c-152 0 -285 115 -285 289c0 255 191 389 354 389c105 0 169 -37 204 -98z" />
    <glyph glyph-name="uni216E" unicode="&#x216e;" horiz-adv-x="737" 
d="M325 560l-101 -472h82c135 0 270 102 270 304c0 111 -70 168 -167 168h-84zM-25 0l18 88h136l99 472h-134l16 88h312c137 0 250 -83 250 -253c0 -266 -194 -395 -356 -395h-341z" />
    <glyph glyph-name="uni216F" unicode="&#x216f;" horiz-adv-x="1036" 
d="M308 88l-18 -88h-315l18 88h118l99 472h-116l18 88h252l100 -515l321 515h266l-18 -88h-123l-99 -472h121l-18 -88h-315l18 88h100l90 428l-328 -516h-76l-108 518l-90 -430h103z" />
    <glyph glyph-name="arrowleft" unicode="&#x2190;" horiz-adv-x="1026" 
d="M221 102l-221 185l221 186v-144h735v-83h-735v-144z" />
    <glyph glyph-name="arrowup" unicode="&#x2191;" horiz-adv-x="449" 
d="M240 800l199 -245h-158v-703h-83v703h-158z" />
    <glyph glyph-name="arrowright" unicode="&#x2192;" horiz-adv-x="1026" 
d="M982 287l-252 -211v169h-696v83h696v171z" />
    <glyph glyph-name="arrowdown" unicode="&#x2193;" horiz-adv-x="449" 
d="M422 90l-212 -252l-211 252h169v696h83v-696h171z" />
    <glyph glyph-name="uni2196" unicode="&#x2196;" horiz-adv-x="874" 
d="M55 709h292l-116 -117l543 -542l-59 -58l-543 541l-117 -118v294z" />
    <glyph glyph-name="uni2197" unicode="&#x2197;" horiz-adv-x="773" 
d="M381 709h292v-294l-118 118l-542 -541l-59 58l543 542z" />
    <glyph glyph-name="uni2198" unicode="&#x2198;" horiz-adv-x="874" 
d="M774 0h-292l116 117l-543 542l59 58l542 -542l118 119v-294z" />
    <glyph glyph-name="uni2199" unicode="&#x2199;" horiz-adv-x="764" 
d="M337 0h-292v294l117 -119l543 542l59 -58l-543 -542z" />
    <glyph glyph-name="uni21A9" unicode="&#x21a9;" horiz-adv-x="833" 
d="M398 581v83h189c119 0 220 -85 220 -209c0 -122 -101 -209 -220 -209h-368v-144l-221 185l221 186v-144h363c75 0 143 45 143 126c0 80 -66 126 -147 126h-180z" />
    <glyph glyph-name="uni21B0" unicode="&#x21b0;" horiz-adv-x="775" 
d="M271 353l-221 185l221 186v-144h414v-580h-83v497h-331v-144z" />
    <glyph glyph-name="uni21B1" unicode="&#x21b1;" horiz-adv-x="720" 
d="M118 0h-83v580h464v144l221 -186l-221 -185v144h-381v-497z" />
    <glyph glyph-name="uni21B2" unicode="&#x21b2;" horiz-adv-x="760" 
d="M592 709h83v-580h-464v-144l-221 186l221 185v-144h381v497z" />
    <glyph glyph-name="uni21B3" unicode="&#x21b3;" horiz-adv-x="840" 
d="M549 356l221 -185l-221 -186v144h-464v580h83v-497h381v144z" />
    <glyph glyph-name="uni21B4" unicode="&#x21b4;" horiz-adv-x="814" 
d="M55 626v83h580v-504h144l-186 -221l-185 221h144v421h-497z" />
    <glyph glyph-name="uni21C6" unicode="&#x21c6;" horiz-adv-x="1106" 
d="M276 355l-221 185l221 186v-144h755v-83h-755v-144zM1051 170l-221 -185v144h-755v83h755v144z" />
    <glyph glyph-name="partialdiff" unicode="&#x2202;" horiz-adv-x="653" 
d="M272 638c-32 0 -88 -6 -140 -31l-32 74c55 32 125 43 180 43c120 0 307 -65 307 -376c0 -223 -95 -363 -275 -363c-122 0 -241 78 -241 236c0 143 113 231 246 231c80 0 141 -26 171 -57c-14 172 -97 243 -216 243zM331 369c-109 0 -164 -70 -164 -154
c0 -92 73 -143 150 -143c126 0 165 123 170 185c1 13 2 27 2 40c-33 45 -95 72 -158 72z" />
    <glyph glyph-name="Delta" unicode="&#x2206;" horiz-adv-x="657" 
d="M497 90l-193 507l-190 -507h383zM-25 0l278 709h105l279 -709h-662z" />
    <glyph glyph-name="product" unicode="&#x220f;" horiz-adv-x="687" 
d="M594 0h-95v622h-314v-622h-98v709h507v-709z" />
    <glyph glyph-name="summation" unicode="&#x2211;" horiz-adv-x="567" 
d="M40 0v86l273 271l-273 266v86h497v-90h-365l269 -262l-278 -267h374v-90h-497z" />
    <glyph glyph-name="minus" unicode="&#x2212;" horiz-adv-x="533" 
d="M42 248v79h423v-79h-423z" />
    <glyph glyph-name="uni2215" unicode="&#x2215;" horiz-adv-x="386" 
d="M371 648h95l-446 -648h-95z" />
    <glyph glyph-name="uni2219" unicode="&#x2219;" horiz-adv-x="272" 
d="M55 276c0 42 35 78 78 78c39 0 64 -28 64 -62c0 -44 -36 -77 -77 -77c-39 0 -65 28 -65 61z" />
    <glyph glyph-name="radical" unicode="&#x221a;" horiz-adv-x="665" 
d="M712 780h-119l-266 -780h-91l-189 529h108l127 -374l235 713h195v-88z" />
    <glyph glyph-name="infinity" unicode="&#x221e;" horiz-adv-x="811" 
d="M45 290c0 96 73 169 174 169c66 0 127 -37 184 -108c58 71 114 108 179 108c101 0 174 -73 174 -169s-73 -168 -174 -168c-78 0 -139 49 -183 106c-59 -69 -114 -106 -180 -106c-101 0 -174 72 -174 168zM221 379c-57 0 -93 -39 -93 -90s36 -89 93 -89c50 0 88 37 129 87
c-43 52 -77 92 -129 92zM580 200c57 0 93 38 93 89s-36 90 -93 90c-52 0 -86 -39 -129 -88c42 -52 79 -91 129 -91z" />
    <glyph glyph-name="integral" unicode="&#x222b;" horiz-adv-x="310" 
d="M91 -33v584c0 98 60 158 159 158h37v-86h-30c-44 0 -72 -26 -72 -79v-585c0 -98 -57 -159 -155 -159h-43v86h31c42 0 73 28 73 81z" />
    <glyph glyph-name="approxequal" unicode="&#x2248;" horiz-adv-x="654" 
d="M513 429l51 -45c-37 -53 -88 -83 -146 -83c-33 0 -65 10 -100 30l-47 26c-21 11 -42 17 -62 17c-33 0 -65 -15 -91 -45l-53 47c38 55 87 85 143 85c34 0 66 -11 103 -31l46 -25c23 -13 47 -20 70 -20c32 0 61 14 86 44zM513 235l51 -45c-37 -53 -88 -83 -146 -83
c-33 0 -65 10 -100 30l-47 26c-21 11 -42 17 -62 17c-33 0 -65 -15 -91 -45l-53 47c38 55 87 85 143 85c34 0 66 -11 103 -31l46 -25c23 -13 47 -20 70 -20c32 0 61 14 86 44z" />
    <glyph glyph-name="notequal" unicode="&#x2260;" horiz-adv-x="619" 
d="M65 346v77h295l73 99h96l-73 -99h72v-77h-129l-85 -116h214v-79h-273l-73 -100h-96l73 100h-94v79h152l86 116h-238z" />
    <glyph glyph-name="lessequal" unicode="&#x2264;" horiz-adv-x="567" 
d="M65 51v79h412v-79h-412zM65 304v85l412 146v-84l-307 -104l307 -104v-84z" />
    <glyph glyph-name="greaterequal" unicode="&#x2265;" horiz-adv-x="567" 
d="M477 130v-79h-412v79h412zM477 389v-85l-412 -145v84l307 104l-307 104v84z" />
    <glyph glyph-name="dotmath" unicode="&#x22c5;" horiz-adv-x="272" 
d="M55 276c0 42 35 78 78 78c39 0 64 -28 64 -62c0 -44 -36 -77 -77 -77c-39 0 -65 28 -65 61z" />
    <glyph glyph-name="uni24C5" unicode="&#x24c5;" horiz-adv-x="826" 
d="M40 355c0 203 162 369 364 369c203 0 367 -166 367 -369s-164 -370 -367 -370c-202 0 -364 167 -364 370zM118 355c0 -168 126 -297 286 -297s286 129 286 297s-126 296 -286 296s-286 -128 -286 -296zM374 367h52c53 0 89 25 89 76c0 33 -21 51 -63 51h-50zM443 303h-83
l-30 -146h-73l85 401h132c70 0 115 -54 115 -112c0 -81 -63 -143 -146 -143z" />
    <glyph glyph-name="filledbox" unicode="&#x25a0;" horiz-adv-x="879" 
d="M85 0v709h709v-709h-709z" />
    <glyph glyph-name="H22073" unicode="&#x25a1;" horiz-adv-x="879" 
d="M794 0h-709v709h709v-709zM167 633v-558h545v558h-545z" />
    <glyph glyph-name="triagup" unicode="&#x25b2;" horiz-adv-x="847" 
d="M360 724l417 -724h-837z" />
    <glyph glyph-name="uni25B3" unicode="&#x25b3;" horiz-adv-x="847" 
d="M-60 0l420 724l417 -724h-837zM359 561l-283 -486h564z" />
    <glyph glyph-name="lozenge" unicode="&#x25ca;" horiz-adv-x="556" 
d="M278 112l140 242l-140 243l-141 -243zM319 0h-82l-202 354l202 355h82l202 -355z" />
    <glyph glyph-name="circle" unicode="&#x25cb;" horiz-adv-x="846" 
d="M791 354c0 -205 -166 -370 -371 -370s-370 165 -370 370s165 371 370 371s371 -166 371 -371zM708 354c0 162 -128 291 -288 291s-288 -129 -288 -291s128 -291 288 -291s288 129 288 291z" />
    <glyph glyph-name="H18533" unicode="&#x25cf;" horiz-adv-x="846" 
d="M50 354c0 205 165 371 370 371s371 -166 371 -371s-166 -370 -371 -370s-370 165 -370 370z" />
    <glyph glyph-name="uni262E" unicode="&#x262e;" horiz-adv-x="826" 
d="M771 355c0 -203 -164 -370 -367 -370c-202 0 -364 167 -364 370s162 369 364 369c203 0 367 -166 367 -369zM690 355c0 153 -106 273 -246 293v-240l206 -207c25 45 40 97 40 154zM118 355c0 -56 14 -108 39 -152l205 205v240c-140 -20 -244 -140 -244 -293zM444 61
c60 8 114 35 156 75l-156 156v-231zM207 137c41 -41 95 -68 155 -76v231z" />
    <glyph glyph-name="uni2713" unicode="&#x2713;" horiz-adv-x="780" 
d="M870 670l-638 -687l-282 315l60 57l226 -247l574 621z" />
    <glyph glyph-name="uni2715" unicode="&#x2715;" horiz-adv-x="774" 
d="M93 -5l-58 58l294 301l-294 301l59 58l293 -300l293 300l59 -58l-295 -301l295 -301l-58 -58l-294 300z" />
    <glyph glyph-name="uni2780" unicode="&#x2780;" horiz-adv-x="826" 
d="M40 355c0 203 162 369 364 369c203 0 367 -166 367 -369s-164 -370 -367 -370c-202 0 -364 167 -364 370zM118 355c0 -168 126 -297 286 -297s286 129 286 297s-126 296 -286 296s-286 -128 -286 -296zM451 173h-77v245h-86v52c49 1 85 31 92 68h71v-365z" />
    <glyph glyph-name="uni2781" unicode="&#x2781;" horiz-adv-x="826" 
d="M404 724c203 0 367 -166 367 -369s-164 -370 -367 -370c-202 0 -364 167 -364 370s162 369 364 369zM118 355c0 -168 126 -297 286 -297s286 129 286 297s-126 296 -286 296s-286 -128 -286 -296zM353 336l60 37c28 17 43 39 43 63c0 26 -19 50 -54 50
c-34 0 -57 -23 -57 -58c0 -4 1 -17 3 -26h-74c-2 10 -3 23 -3 31c0 63 50 117 132 117s131 -54 131 -115c0 -47 -27 -83 -70 -110l-72 -45c-15 -10 -28 -23 -31 -37h175v-65h-268v10c0 60 25 111 85 148z" />
    <glyph glyph-name="uni2782" unicode="&#x2782;" horiz-adv-x="826" 
d="M40 355c0 203 162 369 364 369c203 0 367 -166 367 -369s-164 -370 -367 -370c-202 0 -364 167 -364 370zM118 355c0 -168 126 -297 286 -297s286 129 286 297s-126 296 -286 296s-286 -128 -286 -296zM369 339l-29 56l93 77h-169v65h271v-63l-100 -78
c57 -5 108 -43 108 -111c0 -66 -58 -121 -145 -121s-135 51 -147 103l67 27c6 -38 38 -64 79 -64s68 24 68 55c0 42 -35 58 -68 58c-10 0 -21 -2 -28 -4z" />
    <glyph glyph-name="uni2783" unicode="&#x2783;" horiz-adv-x="826" 
d="M40 355c0 203 162 369 364 369c203 0 367 -166 367 -369s-164 -370 -367 -370c-202 0 -364 167 -364 370zM118 355c0 -168 126 -297 286 -297s286 129 286 297s-126 296 -286 296s-286 -128 -286 -296zM230 250v73l177 220h85v-228h64v-65h-64v-72h-77v72h-185zM415 315
v139l-111 -139h111z" />
    <glyph glyph-name="uni2784" unicode="&#x2784;" horiz-adv-x="826" 
d="M40 355c0 203 162 369 364 369c203 0 367 -166 367 -369s-164 -370 -367 -370c-202 0 -364 167 -364 370zM118 355c0 -168 126 -297 286 -297s286 129 286 297s-126 296 -286 296s-286 -128 -286 -296zM252 255l66 30c9 -35 37 -57 73 -57c39 0 67 22 67 61
c0 41 -29 62 -67 62c-27 0 -48 -11 -64 -27l-64 24l49 187h204v-66h-154l-23 -86c18 20 46 28 73 28c74 0 124 -46 124 -119c0 -71 -52 -129 -145 -129c-72 0 -126 45 -139 92z" />
    <glyph glyph-name="uni2785" unicode="&#x2785;" horiz-adv-x="826" 
d="M40 355c0 203 162 369 364 369c203 0 367 -166 367 -369s-164 -370 -367 -370c-202 0 -364 167 -364 370zM118 355c0 -168 126 -297 286 -297s286 129 286 297s-126 296 -286 296s-286 -128 -286 -296zM523 527l-18 -57c-20 9 -41 13 -62 13c-64 0 -112 -36 -123 -105
c17 25 54 43 91 43c77 0 130 -46 130 -126c0 -77 -64 -129 -147 -129c-74 0 -151 52 -151 167c0 130 83 213 194 213c33 0 66 -7 86 -19zM326 294c0 -41 35 -63 69 -63s68 22 68 63s-34 63 -68 63s-69 -22 -69 -63z" />
    <glyph glyph-name="uni2786" unicode="&#x2786;" horiz-adv-x="826" 
d="M40 355c0 203 162 369 364 369c203 0 367 -166 367 -369s-164 -370 -367 -370c-202 0 -364 167 -364 370zM118 355c0 -168 126 -297 286 -297s286 129 286 297s-126 296 -286 296s-286 -128 -286 -296zM554 533v-69c-35 -24 -136 -107 -154 -296h-82
c18 198 136 299 136 299h-197v66h297z" />
    <glyph glyph-name="uni2787" unicode="&#x2787;" horiz-adv-x="826" 
d="M40 355c0 203 162 369 364 369c203 0 367 -166 367 -369s-164 -370 -367 -370c-202 0 -364 167 -364 370zM118 355c0 -168 126 -297 286 -297s286 129 286 297s-126 296 -286 296s-286 -128 -286 -296zM403 390c35 0 57 19 57 48c0 26 -21 45 -57 45s-57 -19 -57 -45
c0 -29 22 -48 57 -48zM403 230c44 0 67 20 67 50c0 29 -24 50 -67 50s-67 -21 -67 -50c0 -30 23 -50 67 -50zM403 166c-93 0 -145 47 -145 108c0 36 25 70 68 86c-36 15 -56 47 -56 80c0 62 56 105 133 105s133 -43 133 -105c0 -33 -20 -65 -56 -80c43 -16 68 -50 68 -86
c0 -61 -52 -108 -145 -108z" />
    <glyph glyph-name="uni2788" unicode="&#x2788;" horiz-adv-x="826" 
d="M40 355c0 203 162 369 364 369c203 0 367 -166 367 -369s-164 -370 -367 -370c-202 0 -364 167 -364 370zM118 355c0 -168 126 -297 286 -297s286 129 286 297s-126 296 -286 296s-286 -128 -286 -296zM276 183l18 59c20 -9 41 -13 62 -13c64 0 115 31 123 103
c-17 -25 -54 -43 -91 -43c-75 0 -130 48 -130 126c0 76 64 129 147 129c74 0 149 -52 149 -167c0 -138 -81 -213 -192 -213c-33 0 -66 7 -86 19zM471 415c0 41 -33 64 -69 64s-68 -23 -68 -64s32 -64 68 -64s69 23 69 64z" />
    <glyph glyph-name="uniE000" unicode="&#xe000;" horiz-adv-x="814" 
d="M221 -16l-186 221h144v504h580v-83h-497v-421h144z" />
    <glyph glyph-name="uni21B5" unicode="&#xe001;" horiz-adv-x="1080" 
d="M224 145l-179 210h131c1 204 166 369 369 369c66 0 128 -17 182 -47l-37 -74c-43 24 -92 38 -144 38c-160 0 -286 -127 -286 -286h143zM914 354c-1 -205 -166 -369 -369 -369c-66 0 -128 17 -182 47l37 74c43 -24 92 -38 144 -38c160 0 286 127 286 286h-138l179 210
l179 -210h-136z" />
    <glyph glyph-name="uniE002" unicode="&#xe002;" horiz-adv-x="949" 
d="M561 354l179 210l179 -210h-130c0 -204 -165 -369 -370 -369c-204 0 -369 165 -369 369c0 205 165 370 369 370c66 0 128 -17 182 -47l-37 -74c-43 24 -92 38 -144 38c-160 0 -286 -127 -286 -287s126 -288 286 -288s285 128 285 288h-144z" />
    <glyph glyph-name="uniFB00" unicode="&#xfb00;" horiz-adv-x="618" 
d="M617 643c-40 0 -71 -18 -84 -77l-18 -85h109l-18 -83h-109l-84 -398h-97l84 398h-189l-84 -398h-97l84 398h-81l18 83h81l21 100c27 130 113 148 172 148c38 0 61 -12 64 -14l-18 -80c-5 2 -20 8 -40 8c-40 0 -71 -18 -84 -77l-18 -85h189l21 100c27 130 113 148 172 148
c38 0 61 -12 64 -14l-18 -80c-5 2 -20 8 -40 8z" />
    <glyph glyph-name="fi" unicode="&#xfb01;" horiz-adv-x="591" 
d="M211 398l-84 -398h-97l84 398h-81l18 83h81l21 100c27 130 113 148 172 148c38 0 61 -12 64 -14l-18 -80c-5 2 -20 8 -40 8c-40 0 -71 -18 -84 -77l-18 -85h307l-103 -481h-94l85 398h-213zM459 659c0 42 38 74 74 74s61 -27 61 -60c0 -41 -38 -74 -74 -74s-61 27 -61 60
z" />
    <glyph glyph-name="fl" unicode="&#xfb02;" horiz-adv-x="590" 
d="M331 643c-40 0 -71 -18 -84 -77l-18 -85h213l52 243h94l-154 -724h-94l85 398h-214l-84 -398h-97l84 398h-81l18 83h81l21 100c27 130 113 148 172 148c38 0 61 -12 64 -14l-18 -80c-5 2 -20 8 -40 8z" />
    <glyph glyph-name="uniFB03" unicode="&#xfb03;" horiz-adv-x="870" 
d="M738 659c0 42 38 74 74 74s61 -27 61 -60c0 -41 -38 -74 -74 -74s-61 27 -61 60zM617 643c-40 0 -71 -18 -84 -77l-18 -85h300l-103 -481h-94l85 398h-206l-84 -398h-97l84 398h-189l-84 -398h-97l84 398h-81l18 83h81l21 100c27 130 113 148 172 148c38 0 61 -12 64 -14
l-18 -80c-5 2 -20 8 -40 8c-40 0 -71 -18 -84 -77l-18 -85h189l21 100c27 130 113 148 172 148c38 0 61 -12 64 -14l-18 -80c-5 2 -20 8 -40 8z" />
    <glyph glyph-name="uniFB04" unicode="&#xfb04;" horiz-adv-x="875" 
d="M617 643c-40 0 -71 -18 -84 -77l-18 -85h212l52 243h94l-154 -724h-94l85 398h-213l-84 -398h-97l84 398h-189l-84 -398h-97l84 398h-81l18 83h81l21 100c27 130 113 148 172 148c38 0 61 -12 64 -14l-18 -80c-5 2 -20 8 -40 8c-40 0 -71 -18 -84 -77l-18 -85h189l21 100
c27 130 113 148 172 148c38 0 61 -12 64 -14l-18 -80c-5 2 -20 8 -40 8z" />
    <glyph glyph-name="uniFEFF" unicode="&#xfeff;" horiz-adv-x="0" 
 />
    <glyph glyph-name="zero.numr" horiz-adv-x="411" 
d="M55 412c0 107 52 243 182 243c88 0 134 -61 134 -137c0 -124 -59 -242 -181 -242c-77 0 -135 50 -135 136zM125 414c0 -39 23 -71 69 -71c76 0 106 105 106 173c0 36 -16 72 -68 72c-87 0 -107 -131 -107 -174z" />
    <glyph glyph-name="one.numr" horiz-adv-x="290" 
d="M166 283h-77l56 250h-80l10 51c49 2 87 28 102 64h68z" />
    <glyph glyph-name="two.numr" horiz-adv-x="388" 
d="M165 449l63 28c39 17 57 37 57 65c0 23 -17 48 -51 48c-39 0 -66 -24 -66 -77h-75c0 91 60 141 143 141c84 0 127 -51 127 -108c0 -58 -38 -100 -96 -125l-76 -33c-25 -11 -36 -26 -42 -40h184l-14 -65h-274c8 78 46 133 120 166z" />
    <glyph glyph-name="three.numr" horiz-adv-x="425" 
d="M188 454l-26 60l114 69h-160l14 65h260l-14 -74l-114 -67c48 -9 85 -50 85 -99c0 -68 -54 -132 -147 -132c-73 0 -135 43 -135 115c0 6 1 14 2 19l69 5c-1 -4 -1 -7 -1 -11c0 -33 26 -62 64 -62c40 0 72 22 72 64c0 33 -28 52 -59 52c-8 0 -19 -2 -24 -4z" />
    <glyph glyph-name="four.numr" horiz-adv-x="427" 
d="M55 359l16 85l206 204h88l-48 -224h65l-14 -65h-64c0 -1 -1 -4 -16 -76h-76l16 76h-173zM241 424l31 137l-138 -137h107z" />
    <glyph glyph-name="five.numr" horiz-adv-x="407" 
d="M55 395l76 7c0 -32 19 -60 60 -60c33 0 68 19 68 64c0 38 -27 56 -59 56c-18 0 -36 -6 -49 -16l-64 36l72 166h213l-13 -66h-158l-31 -72c15 9 41 12 55 12c66 0 112 -37 112 -107c0 -77 -63 -139 -148 -139c-76 0 -134 49 -134 119z" />
    <glyph glyph-name="six.numr" horiz-adv-x="390" 
d="M376 632l-27 -56c-18 10 -41 16 -72 16c-49 0 -103 -29 -124 -85c19 19 52 24 75 24c72 0 117 -44 117 -111c0 -91 -77 -144 -154 -144c-69 0 -136 48 -136 146c0 125 88 234 222 234c37 0 76 -6 99 -24zM207 467c-39 0 -73 -27 -73 -68c0 -37 27 -58 62 -58
c33 0 70 22 70 71c0 33 -23 55 -59 55z" />
    <glyph glyph-name="seven.numr" horiz-adv-x="368" 
d="M383 648l-14 -64c-57 -39 -170 -122 -224 -301h-80c41 176 185 285 207 299h-190l13 66h288z" />
    <glyph glyph-name="eight.numr" horiz-adv-x="396" 
d="M177 542c0 -24 19 -41 45 -41c30 0 63 15 63 52c0 21 -15 39 -48 41c-36 0 -60 -20 -60 -52zM132 382c0 -29 28 -45 60 -45c41 0 68 21 68 57c0 25 -21 45 -58 45c-40 0 -70 -24 -70 -57zM188 276c-87 0 -133 44 -133 99c0 43 34 83 94 98c-28 11 -47 42 -47 67
c0 66 54 115 142 115c69 0 117 -38 117 -92c0 -39 -25 -78 -76 -96c29 -11 52 -43 52 -72c0 -71 -66 -119 -149 -119z" />
    <glyph glyph-name="nine.numr" horiz-adv-x="407" 
d="M50 310l30 57c24 -17 54 -25 84 -25c47 0 101 28 114 88c-18 -21 -49 -31 -72 -31c-70 0 -125 45 -125 115c0 87 73 140 153 140c70 0 133 -43 133 -139c0 -137 -69 -240 -207 -240c-39 0 -85 14 -110 35zM217 462c39 0 69 30 69 72c0 34 -27 56 -57 56
c-35 0 -69 -25 -69 -71c0 -35 24 -57 57 -57z" />
    <glyph glyph-name="zero.dnom" horiz-adv-x="411" 
d="M35 129c0 107 52 243 182 243c88 0 134 -61 134 -137c0 -124 -59 -242 -181 -242c-77 0 -135 50 -135 136zM105 131c0 -39 23 -71 69 -71c76 0 106 105 106 173c0 36 -16 72 -68 72c-87 0 -107 -131 -107 -174z" />
    <glyph glyph-name="one.dnom" horiz-adv-x="290" 
d="M136 0h-77l56 250h-80l10 51c49 2 87 28 102 64h68z" />
    <glyph glyph-name="two.dnom" horiz-adv-x="381" 
d="M125 166l63 28c39 17 57 37 57 65c0 23 -17 48 -51 48c-39 0 -66 -24 -66 -77h-75c0 91 60 141 143 141c84 0 127 -51 127 -108c0 -58 -38 -100 -96 -125l-76 -33c-25 -11 -36 -26 -42 -40h184l-14 -65h-274c8 78 46 133 120 166z" />
    <glyph glyph-name="three.dnom" horiz-adv-x="425" 
d="M148 172l-26 60l114 69h-160l14 65h260l-14 -74l-114 -67c48 -9 85 -50 85 -99c0 -68 -54 -132 -147 -132c-73 0 -135 43 -135 115c0 6 1 14 2 19l69 5c-1 -4 -1 -7 -1 -11c0 -33 26 -62 64 -62c40 0 72 22 72 64c0 33 -28 52 -59 52c-8 0 -19 -2 -24 -4z" />
    <glyph glyph-name="four.dnom" horiz-adv-x="427" 
d="M5 76l16 85l206 204h88l-48 -224h65l-14 -65h-64c0 -1 -1 -4 -16 -76h-76l16 76h-173zM191 141l31 137l-138 -137h107z" />
    <glyph glyph-name="five.dnom" horiz-adv-x="407" 
d="M15 112l76 7c0 -32 19 -60 60 -60c33 0 68 19 68 64c0 38 -27 56 -59 56c-18 0 -36 -6 -49 -16l-64 36l72 166h213l-13 -66h-158l-31 -72c15 9 41 12 55 12c66 0 112 -37 112 -107c0 -77 -63 -139 -148 -139c-76 0 -134 49 -134 119z" />
    <glyph glyph-name="six.dnom" horiz-adv-x="390" 
d="M336 349l-27 -56c-18 10 -41 16 -72 16c-49 0 -103 -29 -124 -85c19 19 52 24 75 24c72 0 117 -44 117 -111c0 -91 -77 -144 -154 -144c-69 0 -136 48 -136 146c0 125 88 234 222 234c37 0 76 -6 99 -24zM167 184c-39 0 -73 -27 -73 -68c0 -37 27 -58 62 -58
c33 0 70 22 70 71c0 33 -23 55 -59 55z" />
    <glyph glyph-name="seven.dnom" horiz-adv-x="368" 
d="M343 365l-14 -64c-57 -39 -170 -122 -224 -301h-80c41 176 185 285 207 299h-190l13 66h288z" />
    <glyph glyph-name="eight.dnom" horiz-adv-x="396" 
d="M137 259c0 -24 19 -41 45 -41c30 0 63 15 63 52c0 21 -15 39 -48 41c-36 0 -60 -20 -60 -52zM92 99c0 -29 28 -45 60 -45c41 0 68 21 68 57c0 25 -21 45 -58 45c-40 0 -70 -24 -70 -57zM148 -7c-87 0 -133 44 -133 99c0 43 34 83 94 98c-28 11 -47 42 -47 67
c0 66 54 115 142 115c69 0 117 -38 117 -92c0 -39 -25 -78 -76 -96c29 -11 52 -43 52 -72c0 -71 -66 -119 -149 -119z" />
    <glyph glyph-name="nine.dnom" horiz-adv-x="407" 
d="M15 29l30 57c24 -17 54 -25 84 -25c47 0 101 28 114 88c-18 -21 -49 -31 -72 -31c-70 0 -125 45 -125 115c0 87 73 140 153 140c70 0 133 -43 133 -139c0 -137 -69 -240 -207 -240c-39 0 -85 14 -110 35zM182 181c39 0 69 30 69 72c0 34 -27 56 -57 56
c-35 0 -69 -25 -69 -71c0 -35 24 -57 57 -57z" />
    <glyph glyph-name="space.frac" horiz-adv-x="52" 
 />
    <glyph glyph-name="a.ordn" horiz-adv-x="463" 
d="M242 592c-69 0 -106 -74 -106 -139c0 -51 26 -86 76 -86c59 0 104 60 104 143c0 47 -24 82 -74 82zM349 648h73l-53 -256c-4 -18 -7 -41 -7 -61v-22h-70c-1 7 -1 16 -1 21c0 3 0 11 1 22c-21 -27 -54 -50 -97 -50c-87 0 -134 67 -134 150c0 112 73 206 176 206
c59 0 90 -28 104 -52z" />
    <glyph glyph-name="b.ordn" horiz-adv-x="485" 
d="M160 309h-73l107 507h73l-41 -196c23 24 59 38 99 38c88 0 132 -67 132 -148c0 -120 -76 -210 -180 -210c-50 0 -91 26 -106 62zM297 591c-55 0 -104 -52 -104 -135c0 -52 30 -89 78 -89c52 0 110 48 110 136c0 57 -33 88 -84 88z" />
    <glyph glyph-name="c.ordn" horiz-adv-x="433" 
d="M392 549l-69 -22c-7 33 -31 64 -79 64c-54 0 -108 -45 -108 -134c0 -56 35 -91 87 -91c48 0 74 30 88 59l63 -26c-25 -52 -75 -100 -154 -100c-98 0 -159 67 -159 157c0 121 86 203 188 203c92 0 132 -60 143 -110z" />
    <glyph glyph-name="d.ordn" horiz-adv-x="464" 
d="M242 592c-69 0 -106 -74 -106 -139c0 -51 26 -86 76 -86c59 0 104 60 104 143c0 47 -24 82 -74 82zM292 352c-21 -27 -54 -50 -97 -50c-87 0 -134 67 -134 150c0 112 73 206 176 206c57 0 89 -26 103 -50l43 208h75l-89 -424c-4 -18 -7 -41 -7 -61v-22h-70
c-1 7 -1 16 -1 21c0 3 0 11 1 22z" />
    <glyph glyph-name="e.ordn" horiz-adv-x="436" 
d="M142 515h170c0 2 1 7 1 12c0 31 -19 68 -72 68s-87 -38 -99 -80zM378 458h-245c-1 -4 -1 -6 -1 -10c0 -51 36 -85 83 -85s77 26 91 52l58 -33c-24 -44 -77 -83 -150 -83c-85 0 -155 55 -155 155c0 127 92 205 185 205c92 0 144 -58 144 -139c0 -25 -6 -49 -10 -62z" />
    <glyph glyph-name="f.ordn" horiz-adv-x="341" 
d="M309 583h-76l-57 -274h-77l58 274h-58l14 65h58l14 66c19 88 77 106 125 106c27 0 45 -9 48 -11l-13 -63c-4 2 -14 6 -29 6c-28 0 -49 -13 -58 -52l-11 -52h76z" />
    <glyph glyph-name="g.ordn" horiz-adv-x="461" 
d="M346 513c0 37 -25 77 -78 77c-57 0 -101 -44 -101 -116c0 -48 25 -85 79 -85c58 0 100 47 100 124zM50 292l70 15c0 -39 19 -76 77 -76c62 0 97 38 113 108l6 26c-14 -20 -45 -39 -87 -39c-86 0 -137 62 -137 142c0 105 71 187 172 187c50 0 86 -20 103 -50l9 43h75
l-64 -308c-18 -88 -69 -174 -191 -174c-99 0 -146 63 -146 126z" />
    <glyph glyph-name="h.ordn" horiz-adv-x="460" 
d="M360 308h-75l43 202c2 8 2 16 2 24c0 35 -19 57 -58 57c-48 0 -78 -43 -87 -86l-42 -197h-75l108 507h75l-42 -196c24 27 57 38 95 38c65 0 105 -41 105 -103c0 -14 -2 -25 -4 -34z" />
    <glyph glyph-name="i.ordn" horiz-adv-x="269" 
d="M167 767c0 32 27 56 55 56s46 -20 46 -45c0 -31 -28 -55 -55 -55s-46 20 -46 44zM157 309h-75l73 339h74z" />
    <glyph glyph-name="j.ordn" horiz-adv-x="279" 
d="M103 275l81 373h74l-83 -390c-13 -60 -53 -92 -107 -92c-31 0 -50 10 -52 11l13 59c2 0 15 -5 30 -5c26 1 38 15 44 44zM196 767c0 32 27 56 55 56c27 0 46 -20 46 -45c0 -31 -28 -55 -56 -55c-26 0 -45 20 -45 44z" />
    <glyph glyph-name="k.ordn" horiz-adv-x="423" 
d="M292 309l-73 152l-63 -52l-21 -100h-74l108 507h74l-64 -300l157 132h109l-168 -139l98 -200h-83z" />
    <glyph glyph-name="l.ordn" horiz-adv-x="246" 
d="M143 309h-75l108 507h75z" />
    <glyph glyph-name="m.ordn" horiz-adv-x="657" 
d="M350 309h-74l44 209c1 7 2 14 2 20c0 31 -16 54 -56 54c-46 0 -70 -35 -79 -79l-44 -204h-74l60 280c7 33 7 57 7 59h73c0 -5 -1 -24 -3 -35c24 30 56 45 96 45c42 0 73 -21 87 -54c36 46 80 54 118 54c55 0 98 -40 98 -102c0 -10 -1 -20 -3 -31l-46 -216h-75l44 209
c2 8 3 15 3 22c0 30 -18 52 -56 52c-43 0 -70 -35 -79 -79z" />
    <glyph glyph-name="n.ordn" horiz-adv-x="460" 
d="M371 309h-75l43 202c2 8 3 16 3 24c0 35 -20 57 -59 57c-48 0 -78 -43 -87 -86l-42 -197h-75l60 280c7 33 7 57 7 59h73c0 -4 -1 -25 -3 -36c25 34 63 46 102 46c62 0 102 -41 102 -103c0 -14 -2 -22 -4 -34z" />
    <glyph glyph-name="o.ordn" horiz-adv-x="455" 
d="M243 591c-56 0 -106 -50 -106 -133c0 -57 32 -92 80 -92c54 0 107 47 107 134c0 55 -30 91 -81 91zM400 502c0 -113 -79 -203 -186 -203c-96 0 -153 70 -153 156c0 118 82 204 187 204c98 0 152 -71 152 -157z" />
    <glyph glyph-name="p.ordn" horiz-adv-x="481" 
d="M288 590c-56 0 -106 -51 -106 -134c0 -57 31 -89 80 -89c51 0 107 48 107 136c0 56 -31 87 -81 87zM211 611c24 29 63 46 104 46c88 0 130 -65 130 -147c0 -120 -74 -210 -178 -210c-47 0 -90 23 -108 57l-39 -181h-74l88 413c7 33 8 57 8 59h73c0 -3 0 -22 -4 -37z" />
    <glyph glyph-name="q.ordn" horiz-adv-x="480" 
d="M426 648l-100 -472h-75l35 163c-22 -22 -51 -37 -87 -37c-87 1 -137 68 -137 150c0 112 74 205 177 205c57 0 91 -26 105 -49l8 40h74zM244 591c-69 0 -107 -73 -107 -138c0 -50 28 -86 80 -86c59 0 103 59 103 140c0 50 -24 84 -76 84z" />
    <glyph glyph-name="r.ordn" horiz-adv-x="282" 
d="M300 571c-9 2 -18 3 -27 3c-50 0 -93 -28 -110 -105l-35 -160h-74l60 280c7 33 7 57 7 59h74c0 -11 -2 -37 -6 -49c27 43 74 53 108 53c7 0 14 0 20 -1z" />
    <glyph glyph-name="s.ordn" horiz-adv-x="387" 
d="M64 414l65 14c0 -38 24 -69 67 -69c34 0 50 21 50 42c0 15 -9 27 -30 37l-45 21c-43 20 -65 48 -65 89c0 58 49 111 126 111c93 0 120 -64 123 -100l-66 -16c0 24 -18 56 -62 56c-30 0 -49 -19 -49 -41c0 -17 9 -28 25 -35l45 -20c48 -22 72 -57 72 -97
c0 -46 -37 -107 -126 -107c-100 0 -130 70 -130 115z" />
    <glyph glyph-name="t.ordn" horiz-adv-x="314" 
d="M221 581l-34 -166c-1 -6 -2 -11 -2 -16c0 -20 12 -29 37 -29c10 0 21 2 23 3l-13 -62c-6 -2 -19 -5 -38 -5c-53 0 -87 29 -87 78c0 8 1 17 3 26l37 171h-62l14 67h11c40 0 61 21 69 55l11 50h68l-22 -105h67l-14 -67h-68z" />
    <glyph glyph-name="u.ordn" horiz-adv-x="422" 
d="M254 347c-21 -30 -57 -46 -89 -46c-71 0 -110 45 -110 110c0 13 1 25 4 39l42 198h75l-41 -196c-2 -10 -3 -20 -3 -29c0 -32 15 -57 56 -57c47 0 75 40 84 84l42 198h74l-54 -256c-4 -18 -7 -41 -7 -61v-22h-73c-1 7 -1 12 -1 17c0 3 0 12 1 21z" />
    <glyph glyph-name="v.ordn" horiz-adv-x="384" 
d="M409 648l-200 -339h-73l-60 339h77l35 -248l137 248h84z" />
    <glyph glyph-name="w.ordn" horiz-adv-x="584" 
d="M285 648h79l30 -241l120 241h80l-177 -339h-77l-32 248l-129 -248h-78l-34 339h72l21 -240z" />
    <glyph glyph-name="x.ordn" horiz-adv-x="413" 
d="M239 424l-105 -115h-94l164 174l-88 165h82l57 -111l100 111h93l-159 -169l92 -170h-82z" />
    <glyph glyph-name="y.ordn" horiz-adv-x="403" 
d="M140 176h-85l124 190l-80 282h80l55 -205l127 205h87z" />
    <glyph glyph-name="z.ordn" horiz-adv-x="410" 
d="M334 309h-277l14 66l219 207h-169l14 66h266l-14 -65l-221 -208h182z" />
    <glyph glyph-name="space.tf" 
 />
    <glyph glyph-name="numbersign.tf" 
d="M43 405v76h104l36 167h84l-36 -167h112l36 167h84l-36 -167h95v-76h-111l-34 -160h96v-76h-113l-36 -169h-84l36 169h-112l-36 -169h-84l36 169h-86v76h103l34 160h-88zM215 405l-34 -160h112l34 160h-112z" />
    <glyph glyph-name="dollar.tf" 
d="M149 -104l23 107c-113 26 -159 120 -159 203c0 2 0 4 1 13l86 14c-1 -9 -1 -13 -1 -16c0 -58 27 -115 89 -135l46 211l-23 12c-68 36 -112 83 -112 161c0 105 89 185 210 186l22 100h73l-23 -110c100 -27 136 -111 136 -168l-82 -17c0 26 -10 83 -71 106l-45 -214l15 -7
c79 -42 122 -93 122 -163c0 -99 -86 -185 -213 -185l-20 -98h-74zM187 477c0 -41 21 -70 62 -92l3 -2l41 191c-61 -4 -106 -45 -106 -97zM365 172c0 34 -23 63 -65 87l-39 -184c63 6 103 43 104 97z" />
    <glyph glyph-name="percent.tf" 
d="M244 532c0 33 -22 55 -57 55c-36 0 -70 -31 -70 -73c0 -33 22 -57 57 -57c36 0 70 30 70 75zM194 657c70 0 123 -54 123 -122c0 -83 -75 -146 -150 -146c-70 0 -121 52 -121 120c0 80 67 148 148 148zM543 547l-20 -98l-489 -321l20 96zM428 139c0 33 -22 55 -57 55
c-36 0 -70 -31 -70 -73c0 -33 22 -57 57 -57c36 0 70 30 70 75zM501 142c0 -83 -75 -146 -150 -146c-70 0 -121 52 -121 120c0 80 67 148 148 148c70 0 123 -54 123 -122z" />
    <glyph glyph-name="plus.tf" 
d="M296 248v-197h-82v197h-187v79h187v195h82v-195h188v-79h-188z" />
    <glyph glyph-name="comma.tf" 
d="M149 63c0 50 40 88 92 88c48 0 87 -34 87 -95c0 -119 -97 -233 -226 -240l12 62c63 12 120 63 132 120c-4 -3 -16 -5 -26 -5c-39 0 -71 27 -71 70z" />
    <glyph glyph-name="period.tf" 
d="M209 -6c-44 0 -74 32 -74 70c0 49 40 90 89 90c45 0 74 -32 74 -71c0 -51 -41 -89 -89 -89z" />
    <glyph glyph-name="zero.tf" 
d="M104 222c0 -75 24 -148 124 -148c147 0 194 243 194 358c0 75 -25 144 -125 144c-170 0 -193 -290 -193 -354zM221 -15c-143 0 -214 97 -214 231c0 178 81 447 300 447c141 0 213 -101 213 -231c0 -204 -96 -447 -299 -447z" />
    <glyph glyph-name="one.tf" 
d="M25 88h169l81 380h-152l13 63c80 6 157 50 187 117h86l-119 -560h188l-18 -88h-453z" />
    <glyph glyph-name="two.tf" 
d="M-28 0c13 121 81 221 209 282l121 58c77 37 119 77 119 138c0 52 -32 101 -110 101c-84 0 -141 -59 -141 -158v-8l-95 8v7c0 127 89 235 240 235c140 0 205 -79 205 -175c0 -106 -65 -175 -166 -223l-144 -68c-38 -18 -86 -53 -106 -106h354l-19 -91h-467z" />
    <glyph glyph-name="three.tf" 
d="M209 312l-37 91l231 156h-316l18 89h437l-23 -113l-218 -146c82 -7 157 -71 157 -174c0 -119 -94 -230 -245 -230c-146 0 -223 100 -223 201c0 9 0 19 2 29l96 11c-2 -9 -2 -18 -2 -27c0 -65 41 -128 125 -128c83 0 146 55 146 137c0 79 -63 108 -117 108
c-11 0 -24 -2 -31 -4z" />
    <glyph glyph-name="four.tf" 
d="M-14 146l24 116l361 386h127l-90 -411h106l-19 -91h-106l-28 -146h-95l28 146h-308zM313 237l67 305l-282 -305h215z" />
    <glyph glyph-name="five.tf" 
d="M5 191c0 2 0 7 1 10l95 18c-1 -6 -1 -11 -1 -16c0 -66 37 -132 127 -132c74 0 144 52 144 149c0 71 -46 117 -119 117c-46 0 -78 -14 -105 -36l-88 56l139 291h347l-19 -90h-277l-78 -162c29 17 60 24 100 24c116 0 200 -69 200 -189c0 -135 -102 -246 -246 -246
c-132 0 -220 85 -220 206z" />
    <glyph glyph-name="six.tf" 
d="M560 631l-36 -77c-35 16 -73 24 -115 24c-135 0 -230 -82 -264 -207c31 32 83 58 152 58c125 0 203 -77 203 -191c0 -159 -125 -253 -257 -253c-116 0 -220 84 -220 241c0 226 144 437 384 437c54 0 114 -8 153 -32zM273 345c-85 0 -148 -62 -148 -148
c0 -74 54 -126 126 -126c74 0 148 54 148 153c0 74 -48 121 -126 121z" />
    <glyph glyph-name="seven.tf" 
d="M39 558l19 90h503l-20 -94c-70 -48 -289 -207 -391 -554h-102c102 396 386 558 386 558h-395z" />
    <glyph glyph-name="eight.tf" 
d="M290 370c76 0 135 47 135 119c0 50 -38 94 -105 94c-87 0 -139 -50 -139 -120c0 -49 40 -93 109 -93zM105 167c0 -62 50 -101 126 -101c79 0 144 48 144 122c0 57 -40 103 -122 103c-84 0 -148 -48 -148 -124zM473 187c0 -124 -109 -202 -250 -202
c-147 0 -217 81 -217 175c0 82 58 153 161 175c-42 17 -82 72 -82 128c0 123 107 200 234 200c132 0 203 -73 203 -162c0 -81 -53 -149 -146 -173c62 -21 97 -78 97 -141z" />
    <glyph glyph-name="nine.tf" 
d="M129 429c0 -73 49 -121 124 -121c85 0 143 61 143 146c0 75 -54 123 -122 123c-72 0 -145 -51 -145 -148zM-38 38l40 76c43 -30 93 -41 140 -41c137 0 230 92 243 222c-26 -39 -76 -71 -155 -71c-108 0 -201 74 -201 195c0 153 123 244 253 244c123 0 220 -75 220 -240
c0 -248 -123 -438 -360 -438c-64 0 -137 17 -180 53z" />
    <glyph glyph-name="colon.tf" 
d="M199 -11c-43 0 -71 31 -71 68c0 46 38 85 85 85c43 0 71 -30 71 -68c0 -48 -40 -85 -85 -85zM273 336c-43 0 -71 31 -71 68c0 46 38 85 85 85c43 0 71 -30 71 -68c0 -48 -40 -85 -85 -85z" />
    <glyph glyph-name="semicolon.tf" 
d="M283 336c-43 0 -71 31 -71 68c0 46 38 85 85 85c43 0 71 -30 71 -68c0 -48 -40 -85 -85 -85zM141 60c0 46 37 81 84 81c45 0 81 -31 81 -87c0 -110 -89 -215 -209 -222l12 58c58 10 110 58 122 110c-4 -2 -15 -4 -25 -4c-36 0 -65 24 -65 64z" />
    <glyph glyph-name="less.tf" 
d="M61 244v85l412 206v-95l-310 -153l310 -153v-95z" />
    <glyph glyph-name="equal.tf" 
d="M28 346v77h463v-77h-463zM28 151v79h463v-79h-463z" />
    <glyph glyph-name="greater.tf" 
d="M473 329v-85l-412 -205v95l312 153l-312 153v95z" />
    <glyph glyph-name="cent.tf" 
d="M171 0l21 100c-88 25 -141 102 -141 197c0 154 106 261 239 268l18 84h76l-19 -91c81 -21 117 -83 130 -134l-83 -28c-9 33 -29 66 -64 81l-65 -308c62 6 93 46 113 84l77 -33c-35 -67 -101 -129 -207 -130l-19 -90h-76zM141 297c0 -56 26 -98 68 -117l65 305
c-69 -11 -133 -74 -133 -188z" />
    <glyph glyph-name="sterling.tf" horiz-adv-x="597" 
d="M43 273l18 86h74c-6 32 -11 59 -11 88c0 120 84 216 211 216c111 0 180 -60 180 -159c0 -13 -2 -26 -4 -33l-93 -14c2 11 3 21 3 32c0 47 -30 88 -90 88c-65 0 -111 -43 -111 -124c0 -31 7 -62 13 -94h193l-18 -86h-167c-4 -81 -53 -151 -134 -186h210
c68 0 109 50 119 110l88 -18c-20 -113 -99 -179 -203 -179h-342l20 104c98 28 142 97 146 169h-102z" />
    <glyph glyph-name="currency.tf" 
d="M62 239c0 45 14 86 37 120l-75 78l60 59l75 -78c34 22 74 35 116 35c40 0 78 -11 111 -31l72 74l60 -59l-70 -73c25 -35 41 -78 41 -125c0 -46 -14 -88 -39 -123l68 -71l-59 -59l-70 72c-33 -21 -73 -33 -114 -33c-44 0 -85 14 -119 37l-73 -76l-59 59l73 76
c-22 34 -35 74 -35 118zM145 239c0 -78 58 -132 130 -132s128 54 128 132c0 77 -56 131 -128 131s-130 -54 -130 -131z" />
    <glyph glyph-name="yen.tf" 
d="M29 306l15 71h122l-106 271h110l92 -262l194 262h113l-213 -271h122l-15 -71h-169l-17 -80h169l-16 -72h-168l-32 -154h-97l32 154h-169l16 72h168l17 80h-168z" />
    <glyph glyph-name="section.tf" 
d="M5 0l91 8c-3 -14 -5 -27 -5 -39c0 -56 31 -96 101 -96c55 0 109 35 109 102c0 30 -15 56 -40 75l-90 64c-55 39 -104 84 -104 152c0 82 69 128 114 143c-41 33 -61 78 -61 126c0 116 105 189 213 189c123 0 184 -74 184 -161c0 -13 -1 -27 -4 -42l-92 -9c3 14 5 28 5 40
c0 55 -33 94 -99 94c-58 0 -113 -39 -113 -101c0 -29 15 -55 43 -74l89 -65c54 -39 104 -80 104 -148c0 -81 -66 -134 -112 -148c38 -33 60 -80 60 -125c0 -119 -106 -189 -214 -189c-121 0 -183 72 -183 160c0 13 1 28 4 44zM313 311l-86 64c-29 -8 -68 -45 -68 -92
c0 -28 13 -52 44 -74l86 -64c29 7 70 45 70 91c0 29 -14 52 -46 75z" />
    <glyph glyph-name="logicalnot.tf" 
d="M476 149h-84v195h-349v82h433v-277z" />
    <glyph glyph-name="plusminus.tf" 
d="M298 309v-134h-82v134h-177v77h177v136h82v-136h178v-77h-178zM39 51v79h437v-79h-437z" />
    <glyph glyph-name="multiply.tf" 
d="M105 56l-56 56l169 175l-168 175l57 57l167 -174l167 174l57 -56l-169 -175l170 -176l-56 -57l-170 175z" />
    <glyph glyph-name="divide.tf" 
d="M21 246v83h457v-83h-457zM184 110c0 35 30 64 65 64s64 -29 64 -64s-29 -65 -64 -65s-65 30 -65 65zM184 465c0 35 30 64 65 64s64 -29 64 -64s-29 -65 -64 -65s-65 30 -65 65z" />
    <glyph glyph-name="florin.tf" 
d="M151 20l76 378h-111v83h127l23 113c20 102 92 145 165 145c44 0 62 -6 74 -10v-83c-6 2 -22 7 -52 7c-35 0 -81 -13 -97 -92l-16 -80h129v-83h-146l-82 -411c-20 -102 -92 -145 -165 -145c-41 0 -58 4 -77 10v83c14 -4 32 -7 56 -7c35 0 80 10 96 92z" />
    <glyph glyph-name="uni2007.tf" 
 />
    <glyph glyph-name="uni2008.tf" 
 />
    <glyph glyph-name="perthousand.tf" 
d="M155 103c0 -26 18 -46 45 -46c29 0 56 24 56 61c0 26 -18 44 -46 44c-29 0 -55 -26 -55 -59zM39 529c0 70 57 128 129 128c62 0 108 -47 108 -107c0 -73 -61 -129 -129 -129c-63 0 -108 47 -108 108zM193 -8c-62 0 -107 46 -107 106c0 70 59 130 131 130
c35 0 62 -15 78 -39c21 24 52 39 88 39c62 0 108 -47 108 -107c0 -73 -62 -129 -128 -129c-37 0 -65 15 -82 39c-23 -24 -54 -39 -88 -39zM520 578l-21 -98l-480 -301l21 96zM422 118c0 26 -18 44 -46 44c-29 0 -55 -26 -55 -59c0 -26 18 -46 45 -46c29 0 56 24 56 61z
M161 591c-29 0 -55 -26 -55 -59c0 -26 18 -46 45 -46c29 0 56 24 56 61c0 26 -18 44 -46 44z" />
    <glyph glyph-name="Euro.tf" 
d="M41 365l17 78h76c56 127 175 222 330 222c77 0 116 -19 139 -30l-42 -77c-16 7 -47 20 -106 20c-81 0 -172 -43 -221 -135h267l-41 -78h-255c-6 -25 -9 -53 -9 -83h229l-41 -80h-176c29 -86 109 -127 200 -127c18 0 36 2 55 5l5 -84c-10 -3 -40 -8 -66 -8
c-129 0 -258 73 -293 214h-103l17 80h77c0 28 3 56 9 83h-68z" />
    <glyph glyph-name="minus.tf" 
d="M45 248v79h423v-79h-423z" />
    <glyph glyph-name="approxequal.tf" 
d="M403 235l51 -45c-37 -53 -88 -83 -146 -83c-33 0 -65 10 -100 30l-47 26c-21 11 -42 17 -62 17c-33 0 -65 -15 -91 -45l-53 47c38 55 87 85 143 85c34 0 66 -11 103 -31l46 -25c23 -13 47 -20 70 -20c32 0 61 14 86 44zM403 429l51 -45c-37 -53 -88 -83 -146 -83
c-33 0 -65 10 -100 30l-47 26c-21 11 -42 17 -62 17c-33 0 -65 -15 -91 -45l-53 47c38 55 87 85 143 85c34 0 66 -11 103 -31l46 -25c23 -13 47 -20 70 -20c32 0 61 14 86 44z" />
    <glyph glyph-name="notequal.tf" 
d="M33 346v77h295l73 99h96l-73 -99h72v-77h-129l-85 -116h214v-79h-272l-74 -100h-96l74 100h-95v79h153l85 116h-238z" />
    <glyph glyph-name="lessequal.tf" 
d="M60 51v79h412v-79h-412zM60 304v85l412 146v-84l-307 -104l307 -104v-84z" />
    <glyph glyph-name="greaterequal.tf" 
d="M458 130v-79h-412v79h412zM458 389v-85l-412 -145v84l307 104l-307 104v84z" />
    <glyph glyph-name="parenleft.case" horiz-adv-x="283" 
d="M31 248c0 217 90 415 288 540l43 -54c-158 -114 -252 -265 -252 -489c0 -107 32 -204 88 -293l-62 -43c-55 79 -105 203 -105 339z" />
    <glyph glyph-name="parenright.case" horiz-adv-x="283" 
d="M252 449c0 -217 -98 -410 -288 -540l-43 54c149 120 252 265 252 489c0 107 -32 204 -88 293l62 43c55 -79 105 -203 105 -339z" />
    <glyph glyph-name="hyphen.case" horiz-adv-x="358" 
d="M301 296h-271l17 82h271z" />
    <glyph glyph-name="bracketleft.case" horiz-adv-x="288" 
d="M188 -90h-193l189 891h193l-16 -76h-111l-157 -740h111z" />
    <glyph glyph-name="bracketright.case" horiz-adv-x="288" 
d="M103 -90h-192l15 75h111l157 740h-111l16 76h193z" />
    <glyph glyph-name="braceleft.case" horiz-adv-x="353" 
d="M36 313l18 86c57 0 117 25 133 99l24 115c30 146 102 186 219 186h13l-16 -75h-13c-67 0 -104 -32 -120 -105l-31 -142c-15 -67 -60 -116 -130 -126c51 -10 78 -52 78 -105c0 -11 -2 -23 -4 -35l-25 -121c-3 -14 -4 -27 -4 -38c0 -46 25 -67 79 -67h13l-16 -75h-13
c-92 0 -146 50 -146 135c0 16 2 33 6 51l24 114c2 10 3 19 3 27c0 54 -42 76 -92 76z" />
    <glyph glyph-name="braceright.case" horiz-adv-x="354" 
d="M317 396l-18 -86c-58 0 -118 -25 -133 -99l-24 -115c-31 -146 -102 -186 -219 -186h-13l16 75h13c67 0 103 29 120 105l31 142c14 67 59 118 130 126c-49 12 -78 53 -78 106c0 10 1 21 4 34l25 121c3 14 4 26 4 37c0 47 -26 68 -79 68h-13l16 75h13
c92 0 145 -51 145 -136c0 -15 -1 -32 -5 -50l-24 -114c-2 -10 -3 -19 -3 -28c0 -53 42 -75 92 -75z" />
    <glyph glyph-name="exclamdown.case" horiz-adv-x="304" 
d="M214 506l-79 -506h-120l132 506h67zM274 656c0 -39 -31 -73 -72 -73c-36 0 -60 25 -60 58c0 41 34 73 71 73c36 0 61 -25 61 -58z" />
    <glyph glyph-name="guillemotleft.case" horiz-adv-x="477" 
d="M206 149h-93l-98 194l171 188h103l-176 -197zM399 149h-93l-98 194l171 188h103l-176 -197z" />
    <glyph glyph-name="uni00AD.case" horiz-adv-x="358" 
d="M305 313h-271l17 82h271z" />
    <glyph glyph-name="guillemotright.case" horiz-adv-x="492" 
d="M53 531h93l98 -194l-171 -188h-103l176 197zM261 531h93l98 -194l-171 -188h-103l176 197z" />
    <glyph glyph-name="questiondown.case" horiz-adv-x="502" 
d="M256 509h86c-6 -79 -40 -144 -120 -191l-51 -30c-50 -29 -75 -68 -75 -117s32 -95 107 -95c98 0 144 76 144 157l95 -13c-5 -136 -101 -232 -249 -232c-129 0 -198 80 -198 168c0 101 60 163 138 207l54 31c46 26 66 70 69 115zM381 659c0 -39 -31 -73 -72 -73
c-36 0 -60 25 -60 58c0 41 34 73 71 73c36 0 61 -25 61 -58z" />
    <glyph glyph-name="endash.case" horiz-adv-x="639" 
d="M552 296h-512l17 82h512z" />
    <glyph glyph-name="emdash.case" horiz-adv-x="1100" 
d="M1003 296h-953l17 82h953z" />
    <glyph glyph-name="guilsinglleft.case" horiz-adv-x="284" 
d="M206 149h-93l-98 194l171 188h103l-176 -197z" />
    <glyph glyph-name="guilsinglright.case" horiz-adv-x="284" 
d="M53 531h93l98 -194l-171 -188h-103l176 197z" />
    <glyph glyph-name="G.ss01" horiz-adv-x="740" 
d="M418 725c166 0 262 -101 287 -225l-93 -27c-19 91 -88 161 -204 161c-174 0 -274 -157 -274 -326c0 -144 84 -233 214 -233c117 0 205 71 231 176h-268l19 88h363c-11 -196 -138 -354 -348 -354c-181 0 -310 132 -310 317c0 277 195 423 383 423z" />
    <glyph glyph-name="r.ss03" horiz-adv-x="347" 
d="M201 481l-14 -61c11 43 45 66 80 66c39 0 65 -29 65 -63c0 -45 -37 -79 -79 -79c-39 0 -66 28 -66 62v13l-88 -419h-94l102 481h94z" />
    <glyph glyph-name="ampersand.ss04" horiz-adv-x="681" 
d="M638 212h-99c-27 -124 -127 -227 -271 -227c-148 0 -243 89 -243 200c0 146 116 213 204 224c-43 24 -74 68 -74 124c0 109 97 191 204 191c109 0 188 -70 188 -165c0 -10 0 -19 -2 -29l-98 -12c1 9 2 17 2 25c0 53 -31 91 -94 91c-50 0 -101 -37 -101 -101
c0 -53 45 -86 104 -86l-19 -88h-33c-62 0 -179 -33 -179 -158c0 -60 46 -123 148 -123c78 0 143 52 166 134h-101l18 89h298z" />
    <glyph glyph-name="one.ss05" horiz-adv-x="426" 
d="M-27 88h141l81 380h-142l13 63c80 6 147 50 177 117h86l-119 -560h161l-18 -88h-398z" />
    <glyph glyph-name="registered.ss06" horiz-adv-x="429" 
d="M60 526c0 104 85 189 189 189s190 -85 190 -189s-86 -189 -190 -189s-189 85 -189 189zM109 526c0 -80 61 -143 140 -143s141 63 141 143s-62 143 -141 143s-140 -63 -140 -143zM239 539h16c19 0 33 9 33 25c0 12 -8 20 -28 20h-11zM230 497l-14 -66h-51l41 196h70
c41 0 62 -26 62 -55c0 -34 -22 -60 -48 -67l25 -74h-52l-18 66h-15z" />
    <glyph glyph-name="caron.alt" horiz-adv-x="214" 
d="M239 724l-102 -179h-72l66 179h108z" />
    <glyph glyph-name="commaaccent" horiz-adv-x="177" 
d="M65 547l8 40c29 0 61 9 75 41c-4 -2 -12 -4 -19 -4c-29 0 -47 20 -47 45c0 36 28 57 61 57c28 0 59 -16 59 -60c0 -68 -57 -120 -126 -120c-2 0 -6 0 -11 1z" />
    <glyph glyph-name="commaturn" horiz-adv-x="177" 
d="M185 596c0 -33 -26 -59 -61 -59c-27 0 -59 23 -59 60c0 91 81 120 130 120h7l-8 -40h-5c-30 0 -62 -16 -69 -41c5 2 13 4 19 4c29 0 46 -20 46 -44z" />
    <glyph glyph-name="dieresis.narrow" horiz-adv-x="288" 
d="M65 615c0 31 24 60 58 60c29 0 49 -21 49 -48c0 -34 -28 -58 -59 -58c-30 0 -48 20 -48 46zM206 615c0 31 24 60 58 60c29 0 49 -21 49 -48c0 -34 -28 -58 -59 -58c-30 0 -48 20 -48 46z" />
    <glyph glyph-name="dieresis.uc.narrow" horiz-adv-x="301" 
d="M65 813c0 34 26 59 60 59c27 0 46 -21 46 -46c0 -35 -27 -60 -59 -60c-26 0 -47 20 -47 47zM220 813c0 34 26 59 60 59c27 0 46 -21 46 -46c0 -35 -27 -60 -59 -60c-26 0 -47 20 -47 47z" />
    <glyph glyph-name="grave.uc" horiz-adv-x="233" 
d="M172 759l-107 119h118l75 -119h-86z" />
    <glyph glyph-name="dieresis.uc" horiz-adv-x="388" 
d="M65 813c0 38 29 65 66 65c31 0 52 -23 52 -52c0 -39 -31 -66 -65 -66c-30 0 -53 22 -53 53zM295 813c0 38 29 65 66 65c31 0 52 -23 52 -52c0 -39 -31 -66 -65 -66c-30 0 -53 22 -53 53z" />
    <glyph glyph-name="macron.uc" horiz-adv-x="351" 
d="M358 779h-293l18 83h293z" />
    <glyph glyph-name="acute.uc" horiz-adv-x="290" 
d="M315 878l-153 -119h-97l119 119h131z" />
    <glyph glyph-name="circumflex.uc" horiz-adv-x="385" 
d="M152 759h-87l135 119h120l90 -119h-83l-74 64z" />
    <glyph glyph-name="caron.uc" horiz-adv-x="385" 
d="M317 878h93l-140 -119h-120l-85 119h82l69 -64z" />
    <glyph glyph-name="breve.uc" horiz-adv-x="352" 
d="M204 755c-90 0 -139 51 -139 113c0 5 1 11 2 16h78c-1 -4 -1 -6 -1 -8c0 -22 16 -46 66 -46c57 0 82 30 88 54h79c-19 -64 -75 -129 -173 -129z" />
    <glyph glyph-name="dotaccent.uc" horiz-adv-x="169" 
d="M65 814c0 38 32 70 70 70c35 0 59 -26 59 -57c0 -39 -33 -72 -71 -72c-35 0 -58 26 -58 59z" />
    <glyph glyph-name="ring.uc" horiz-adv-x="265" 
d="M180 895c-25 0 -51 -20 -51 -50c0 -26 17 -42 43 -42c28 0 52 20 52 50c0 24 -18 42 -44 42zM65 837c0 72 61 121 122 121c58 0 103 -45 103 -100c0 -61 -55 -119 -120 -119c-58 0 -105 43 -105 98z" />
    <glyph glyph-name="tilde.uc" horiz-adv-x="382" 
d="M407 881c-16 -95 -58 -126 -113 -126c-28 0 -53 12 -70 24l-12 8c-12 8 -23 14 -38 14c-19 0 -33 -12 -39 -44h-70c10 91 59 126 114 126c28 0 53 -12 70 -24l12 -8c12 -8 23 -14 38 -14c19 0 33 12 39 44h69z" />
    <glyph glyph-name="hungarumlaut.uc" horiz-adv-x="382" 
d="M256 878l-118 -119h-73l81 119h110zM407 878l-128 -119h-73l91 119h110z" />
    <glyph glyph-name="caron.alt.uc" horiz-adv-x="221" 
d="M246 760l-105 -190h-76l65 190h116z" />
    <glyph glyph-name="undercommaaccent" horiz-adv-x="224" 
d="M-14 -92c0 33 28 56 64 56c28 0 59 -19 59 -61c0 -84 -74 -117 -125 -117c-4 0 -8 0 -14 1l9 39c28 0 63 9 74 41c-3 -2 -10 -4 -18 -4c-29 0 -49 19 -49 45z" />
    </font>
</defs>
</svg>
